imdb
rating

7.5
Cloud Atlas

Cloud Atlas (2012)

Drama, Science Fiction

Full description
quality   screener fullhd bd dvdrip hd x264

Cloud Atlas 2012 DVDRip XviD-FiCO

Size 745.15 MB   0 seeders     Added 2012-11-26 23:36:07

Stream torrent
Starting‥ You need BitLord! Get it from BitLord.com
To download or stream you need BitLord. Visit them at BitLord.com
Cloud Atlas.2012.DVDRip.XviD-FiCO
 
Video
ID : 0
Format : MPEG-4 Visual
Format profile : Advanced Simple@L5
Format settings, BVOP : 2
Format settings, QPel : No
Format settings, GMC : No warppoints
Format settings, Matrix : Default (H.263)
Muxing mode : Packed bitstream
Codec ID : XVID
Codec ID/Hint : XviD
Duration : 1h 30mn
Bit rate : 1 368 Kbps
Width : 720 pixels
Height : 272 pixels
Display aspect ratio : 2.647
Frame rate : 29.970 fps
Color space : YUV
Chroma subsampling : 4:2:0
Bit depth : 8 bits
Scan type : Progressive
Compression mode : Lossy
Bits/(Pixel*Frame) : 0.233
Stream size : 886 MiB (91%)
Writing library : XviD 64

Audio
ID : 1
Format : MPEG Audio
Format version : Version 1
Format profile : Layer 3
Mode : Joint stereo
Mode extension : MS Stereo
Codec ID : 55
Codec ID/Hint : MP3
Duration : 1h 30mn
Bit rate mode : Constant
Bit rate : 128 Kbps
Channel(s) : 2 channels
Sampling rate : 48.0 KHz
Compression mode : Lossy
Stream size : 82.9 MiB (8%)
Alignment : Split accross interleaves
Interleave, duration : 33 ms (1.00 video frame)
Interleave, preload duration : 500 ms-------------------------------------Torrent downloaded from http://thepiratebay.se
Cloud Atlas.DVDRip.XviD-FiCO.wmv 744.989 MB
Info.nfo 5.215 KB
READ this before playing the Video.txt 5.748 KB
Gathering some info...

Register and log in Isohunt and see no captcha anymore!

4000 symbols left
Hash 8D16EF7766BF95D8920696E31842E7EA70F5E069

Related torrents for "Cloud Atlas 2012 DVDRip XviD-FiCO"

Torrent search:

dvdrip 2012