imdb
rating

6.3
Taken 2

Taken 2 (2012)

Action, Crime, Drama, Thriller

Full description
quality   screener x264 dvd dvdrip hd bd

Taken 2 2012 DVDRip XviD-FiCO

Size 745.066 MB   0 seeders     Added 2012-11-26 23:36:27

Stream torrent
Starting‥ You need BitLord! Get it from BitLord.com
To download or stream you need BitLord. Visit them at BitLord.com
Taken 2.2012.DVDRip.XviD-FiCO
 
Video
ID : 0
Format : MPEG-4 Visual
Format profile : Advanced Simple@L5
Format settings, BVOP : 2
Format settings, QPel : No
Format settings, GMC : No warppoints
Format settings, Matrix : Default (H.263)
Muxing mode : Packed bitstream
Codec ID : XVID
Codec ID/Hint : XviD
Duration : 1h 30mn
Bit rate : 1 368 Kbps
Width : 720 pixels
Height : 272 pixels
Display aspect ratio : 2.647
Frame rate : 29.970 fps
Color space : YUV
Chroma subsampling : 4:2:0
Bit depth : 8 bits
Scan type : Progressive
Compression mode : Lossy
Bits/(Pixel*Frame) : 0.233
Stream size : 886 MiB (91%)
Writing library : XviD 64

Audio
ID : 1
Format : MPEG Audio
Format version : Version 1
Format profile : Layer 3
Mode : Joint stereo
Mode extension : MS Stereo
Codec ID : 55
Codec ID/Hint : MP3
Duration : 1h 30mn
Bit rate mode : Constant
Bit rate : 128 Kbps
Channel(s) : 2 channels
Sampling rate : 48.0 KHz
Compression mode : Lossy
Stream size : 82.9 MiB (8%)
Alignment : Split accross interleaves
Interleave, duration : 33 ms (1.00 video frame)
Interleave, preload duration : 500 ms-------------------------------------Torrent downloaded from http://thepiratebay.se
info.nfo 5.215 KB
READ this before playing the Video.txt 5.748 KB
Subtitle.srt 66.326 KB
Gathering some info...

Register and log in Isohunt and see no captcha anymore!

4000 symbols left
Hash E98F9FFB06E724F36E1C4C2F99034396C0351D82

Related torrents for "Taken 2 2012 DVDRip XviD-FiCO"

Torrent search:

dvdrip 2012