imdb
rating

6.1
Cat People

Cat People (1982)

Drama, Fantasy, Horror, Thriller

Full description
quality   dvdrip x264 hd bd dvdr

Cat People 1982 DVDrip English Klam

Size 1.724 GB   0 seeders     Added 2012-11-26 23:54:24

Stream torrent
Starting‥ You need BitLord! Get it from 1BitLord.com
To download or stream you need BitLord. Visit them at BitLord.com
With: Nastassja Kinski, Malcolm McDowell and John Heard

Irena Gallier (Nastassja Kinski) ontmoet na vele jaren haar broer Paul van wie ze na de geheimzinnige dubbele zelfmoord van haar ouders gescheiden is geweest. Paul schijnt zich seksueel aangetrokken te voelen tot zijn zus...

In this erotic remake of the 1942 classic, a young woman's sexual awakening brings horror when she discovers her urges transform her into a monstrous black leopard. 
 
http://www.imdb.com/title/tt0083722	

------------------------ Dutch Friends ------------------------
---------------------------------------------------------------
- Bezoek ook eens mijn vrienden op:  http://www.Film-Test.nl --
----- voor mijn Nederlandse Sync. ondertitels ---- en meer ----
------- http://www.Film-Test.nl ---- Over Films en meer -------
---------------------------------------------------------------

General:

Complete name                    : Cat PeopleCat People.avi
Format                           : AVI
Format/Info                      : Audio Video Interleave
File size                        : 1.61 GiB
Duration                         : 1h 53mn
Overall bit rate                 : 2 029 Kbps

Video:

Format                           : MPEG-4 Visual
Format profile                   : Simple@L3
Format settings, BVOP            : No
Format settings, QPel            : No
Format settings, GMC             : No warppoints
Format settings, Matrix          : Default (H.263)
Codec ID                         : XVID
Codec ID/Hint                    : XviD
Duration                         : 1h 53mn
Bit rate                         : 1 634 Kbps
Width                            : 652 pixels
Height                           : 352 pixels
Display aspect ratio             : 1.852
Frame rate                       : 25.000 fps
Color space                      : YUV
Chroma subsampling               : 4:2:0
Bit depth                        : 8 bits
Scan type                        : Progressive
Compression mode                 : Lossy
Bits/(Pixel*Frame)               : 0.285
Stream size                      : 1.29 GiB (81%)
Writing library                  : XviD 1.1.2 (UTC 2006-11-01)

Audio:

Format                           : AC-3
Format/Info                      : Audio Coding 3
Mode extension                   : CM (complete main)
Codec ID                         : 2000
Duration                         : 1h 53mn
Bit rate mode                    : Constant
Bit rate                         : 384 Kbps
Channel(s)                       : 6 channels
Channel positions                : Front: L C R, Side: L R, LFE
Sampling rate                    : 48.0 KHz
Bit depth                        : 16 bits
Compression mode                 : Lossy
Stream size                      : 311 MiB (19%)
Alignment                        : Aligned on interleaves
Interleave, duration             : 32 ms (0.80 video frame)
Interleave, preload duration     : 320 ms		
Cat People.avi 1.724 GB
Cover/Cat People 1982.png 259.094 KB
Cover/www.Film-Test.nl.JPG 34.175 KB
Gathering some info...

Register and log in Isohunt and see no captcha anymore!

4000 symbols left
Hash 53FD3E31F004ADD258FA18390B80EF531983ED6D

Related torrents for "Cat People 1982 DVDrip English Klam"

Torrent search:

dvdrip english 1982