Bunheads

Bunheads (2012)

Dance, Drama

Full description

Bunheads S01E05 2012 TVRip XviD [Lektor PL]

Size 393.607 MB   0 seeders     Added 2012-11-27 00:40:54

Stream torrent
Starting‥ You need BitLord! Get it from BitLord.com
To download or stream you need BitLord. Visit them at BitLord.com
Tytuł: ..:: Bunheads ::.. 

Produkcja: USA
Gatunek: Komedia
Data premiery: 11.06.2012
Reżyseria: Kenny Ortega
Zdjęcia: Anette Haellmigk
Stacja telewizyjna: ABC Family
Czas trwania odcinka: 30 min.
http://www.filmweb.pl/serial/Bunheads-2012-648291
http://abcfamily.go.com/shows/bunheads

O B S A D A:

Sutton Foster ... Michelle
Stacey Oristano ... Truly Stone
Angelina McCoy ... Talia
Emma Dumont ... Melanie Segal
Kaitlyn Jenkins ... Bettina Jordan
Christian Barillas ... Jimmy Hewson
Beth Curry ... Hilary
Bianca Bonciu ... Tancerka
Wendy Douglas ... Lucy
Jack Fitz ... Ochroniarz

O P I S S E R I A L U:

Taneczny dramat, w którym główną rolę gra Sutton Foster. Aktorka wciela się w Michelle, tancerkę z Las Vegas, który impulsywnie wychodzi za mąż i przeprowadza się do sennego miasteczka swojego męża. Zostaje tam nauczycielką w szkole tanecznej.

Tancerki - Bunheads S01E05 - (2012) [TVRip XviD] [Lektor PL].avi

Format : AVI
Format/Info : Audio Video Interleave
File size : 375 MiB
Duration : 40mn 31s
Overall bit rate : 1 295 Kbps
Writing application : FairUse Wizard - http://fairusewizard.com
Writing library : The best and REALLY easy backup tool

Video
ID : 0
Format : MPEG-4 Visual
Format profile : Advanced Simple@L5
Format settings, BVOP : 1
Format settings, QPel : No
Format settings, GMC : No warppoints
Format settings, Matrix : Default (MPEG)
Muxing mode : Packed bitstream
Codec ID : XVID
Codec ID/Hint : XviD
Duration : 40mn 31s
Bit rate : 1 157 Kbps
Width : 640 pixels
Height : 368 pixels
Display aspect ratio : 1.739
Frame rate : 25.000 fps
Color space : YUV
Chroma subsampling : 4:2:0
Bit depth : 8 bits
Scan type : Progressive
Compression mode : Lossy
Bits/(Pixel*Frame) : 0.197
Stream size : 335 MiB (89%)
Writing library : XviD 1.2.1 (UTC 2008-12-04)

Audio
ID : 1
Format : MPEG Audio
Format version : Version 1
Format profile : Layer 3
Mode : Joint stereo
Mode extension : MS Stereo
Codec ID : 55
Codec ID/Hint : MP3
Duration : 40mn 31s
Bit rate mode : Constant
Bit rate : 128 Kbps
Channel(s) : 2 channels
Sampling rate : 48.0 KHz
Compression mode : Lossy
Stream size : 37.1 MiB (10%)
Alignment : Aligned on interleaves
Interleave, duration : 40 ms (1.00 video frame)
Interleave, preload duration : 504 ms
Writing library : LAME3.97 
Encoding settings : -m j -V 4 -q 2 -lowpass 17 -b 128
Tancerki - Bunheads S01E05 - (2012) [TVRip XviD] [Lektor PL].avi 393.607 MB
Gathering some info...

Register and log in Isohunt and see no captcha anymore!

4000 symbols left
Hash 3A5243EB4FEA9B318AB42C88A43D3B9DCCF8463E

Related torrents for "Bunheads S01E05 2012 TVRip XviD [Lektor PL]"

Torrent search:

season 01 hdtv episode 05 2012