imdb
rating

6.3
Taken 2

Taken 2 (2012)

Action, Crime, Drama, Thriller

Full description
quality   screener x264 dvd dvdrip hd bd

Taken 2 2012 TS Xvid-1

Size 958.468 MB   0 seeders     Added 2012-11-27 00:47:34

Stream torrent
Starting‥ You need BitLord! Get it from BitLord.com
To download or stream you need BitLord. Visit them at BitLord.com
Runtime ..........:1:27                                                      │
│ IMDb URL ........:http://www.imdb.com/title/tt1397280/                       │
│ Language .........:English                                                   │
│ File Size ........:981mb                                                     │
│ Release Date ......... 2012                                                  │
│ Source       ......... Your Sister/Little Guy                                │
│ File Type    ......... Single AVI                                            │
│ PS3 Compatible ....... Fuck your PS3                                         │
│ Genre        ......... Action/Thriller                                       │
│                                                                              │
│                                                                              │
│ Video                                                                        │
│  ID                               : 0                                        │
│  Format                           : MPEG-4 Visual                            │
│  Format profile                   : Advanced Simple@L5                       │
│  Format settings, BVOP            : Yes                                      │
│  Format settings, QPel            : No                                       │
│  Format settings, GMC             : No warppoints                            │
│  Format settings, Matrix          : Custom                                   │
│  Codec ID                         : XVID                                     │
│  Codec ID/Hint                    : XviD                                     │
│  Duration                         : 1h 27mn                                  │
│  Bit rate                         : 1681kbps                                 │
│  Width                            : 680pixels                                │ 
│  Height                           : 284pixels                                │
│  Display aspect ratio             : 2:35                                     │
│  Frame rate                       : 25.000fps                                │
│  Color space                      : YUV                                      │ 
│  Chroma subsampling               : 4:2:0                                    │
│  Bit depth                        : 8 bits                                   │
│  Scan type                        : Progressive                              │
│  Bits/(Pixel*Frame)               : 0.234                                    │ 
│  Stream size                      : 892 MiB (86%)                            │
│  Writing library                  : XviD 1.2.1 (UTC 2008-12-04)              │
│                                                                              │
│                                                                              │
│ Audio                                                                        │
│ ID                               : 1                                         │
│ Format                           : AC3                                       │
│ Format/Info                      : MPEG                                      │
│ Mode extension                   : CM (complete main)                        │
│ Codec ID                         : 2000                                      │
│ Duration                         : 1h 27mn                                   │
│ Bit rate mode                    : Constant                                  │
│ Bit rate                         : 192kbps                                   │
│ Channel(s)                       : 2channels                                 │
│ Channel positions                : Front: L R                                │
│ Sampling rate                    : 48.0 KHz                                  │
│ Bit depth                        : 16 bits                                   │
│ Stream size                      : 302 MiB                                   │
│ Alignment                        : Aligned on interleaves                    │
│ Interleave, duration             : 42 ms (1.00 video frame)                  │
│ Interleave, preload duration     : 512 ms                                    │
│                                                            
Taken 2 2012 TS Xvid-1.zip 958.468 MB
Gathering some info...

Register and log in Isohunt and see no captcha anymore!

4000 symbols left
Hash 1bf4545de49d5efd861adc320270d8819a28bcb4

Related torrents for "Taken 2 2012 TS Xvid-1"

Torrent search:

telesync 2012