imdb
rating

5.4
Terminal Velocity

Terminal Velocity (1994)

Action, Thriller

Full description
quality   dvdrip x264 bd fullhd hdtv h264 hd

Terminal Velocity (1994)[BDRip.x264-AC3][Napisy PL][Eng]

Size 2.116 GB   0 seeders     Added 2012-11-27 01:20:54

Stream torrent
Starting‥ You need BitLord! Get it from BitLord.com
To download or stream you need BitLord. Visit them at BitLord.com
[center][img]image[/img]
gatunek: Sensacyjny, 
produkcja: USA, 
premiera: 9 września 1994 (świat) 1994-09-09 
reżyseria: Deran Sarafian, 
scenariusz: David Twohy 
muzyka:Joel McNeely
zdjęcia:Oliver Wood
Opis:
A maverick skydiver and a former KGB agent team up to stop the 
Russian mafia from stealing gold.
Richard Brody jest instruktorem skoków spadochronowych. Pewnego 
dnia zgłasza się do niego atrakcyjna dziewczyna, która chce 
wykonać skok. Richard bez przygotowania dziewczyny godzi się na 
przeprowadzenie całej akcji. Niestety dziewczyna ginie, a Richard 
trafia na ślad spisku, w który zaangażowani są agenci KGB. 
[img]image[/img]
[img]image[/img]
[img]image[/img]
[img]image[/img]
Obsada:
Charlie Sheen Richard Ditch Brodie 
Nastassja Kinski Chris Morrow 
James Gandolfini Ben Pinkwater 
Christopher McDonald Kerr
Dane Techniczne:
Terminal Velocity (1994)-alE13.mkv
Format : Matroska
File size : 1.96 GiB
Duration : 1h 41mn
Overall bit rate : 2 753 Kbps
Movie name : Terminal Velocity (1994)-alE13
Encoded date : UTC 2012-11-26 17:15:04
Writing application : mkvmerge v5.8.0 ('No Sleep / Pillow') built on Sep 2 2012 15:37:04
Writing library : libebml v1.2.3 + libmatroska v1.3.0
Video
ID : 1
Format : AVC
Format/Info : Advanced Video Codec
Format profile : Main@L4.0
Format settings, CABAC : Yes
Format settings, ReFrames : 2 frames
Muxing mode : Container profile=Unknown@4.0
Codec ID : V_MPEG4/ISO/AVC
Duration : 1h 41mn
Bit rate : 2 247 Kbps
Width : 1 920 pixels
Height : 1 080 pixels
Display aspect ratio : 16:9
Frame rate mode : Variable
Frame rate : 23.976 fps
Color space : YUV
Chroma subsampling : 4:2:0
Bit depth : 8 bits
Scan type : Progressive
Bits/(Pixel*Frame) : 0.045
Stream size : 1.56 GiB (79%)
Writing library : x264 core 112 r1834 a51816a
Audio
ID : 2
Format : AC-3
Format/Info : Audio Coding 3
Mode extension : CM (complete main)
Muxing mode : Header stripping
Codec ID : A_AC3
Duration : 1h 41mn
Bit rate mode : Constant
Bit rate : 512 Kbps
Channel(s) : 6 channels
Channel positions : Front: L C R, Side: L R, LFE
Sampling rate : 48.0 KHz
Bit depth : 16 bits
Stream size : 373 MiB (19%)[/center]
d580e7788021af4ff8665b5cfea94da2.jpg 139.893 KB
Nostalgie.jpg 144.162 KB
sub/Terminal Velocity (1994)-alE13.srt 50.663 KB
Gathering some info...

Register and log in Isohunt and see no captcha anymore!

4000 symbols left
Hash 10B9C7900BB4CE7E4307CC60EBE7303D8507BD5B

Related torrents for "Terminal Velocity (1994)[BDRip.x264-AC3][Napisy PL][Eng]"

Torrent search:

english 1994 x264 bd