imdb
rating

8.8
Dexter

Dexter (2006)

Crime, Drama, Mystery

Full description

Dexter 2012 S07E09 HDTV x264 Sub_Ita-[iDN_CreW]

Size 441.877 MB   2 seeders     Added 2012-11-27 06:03:11

Stream torrent
Starting‥ You need BitLord! Get it from 1BitLord.com
To download or stream you need BitLord. Visit them at BitLord.com
[img]image[/img]

[Font=Arial Black]Dexter – Season 7 [/font]
HDTv MP4 x264 Eng mp3 Sub Ita 

[img]image[/img]

[color=red]Titolo:[/color] Dexter
[color=red]Anno: [/color]2012
[color=red]Nazionalità: [/color]USA 
[color=red]Genere:[/color] Drammatico - Poliziesco
[color=red]Lingua:[/color] Inglese
[color=red]Stagione:[/color] 7
[color=red]Episodi:[/color] 12
[color=red]Durata Episodio:[/color] 50 min ca (episodio)
[color=red]Ideatore:[/color] James Manos, Jr.
[color=red]Produttori:[/color] Daniel Cerone, Clyde Phillips, John Goldwyn, Sara Colleton
[color=red]Distribuzione (USA):[/color] Showtime dal 30 settembre 2012 e in corso
[color=red]Distribuzione (Italia):[/color] Fox Crime a partire dal 12 novembre 2012

[img]image[/img]

[img]image[/img]


•	Dexter Morgan  interpretato da Michael C. Hall;
•	Debra Morgan  interpretata da Jennifer Carpenter;
•	Maria LaGuerta  interpretata da Lauren Vélez;
•	Angel Batista  interpretato da David Zayas
•	Vincent "Vince" Masuka  interpretato da C. S. Lee;
•	Harrison "Harry" Morgan  interpretato da James Remar;
•	Joseph "Joey" Quinn  interpretato da Desmond Harrington;
•	Jamie Batista interpretto da Aimme Garcia;
•       Mike Anderson interpretato da Billy Brown


Nuove Guest-star:

•       Hannah McKay interpretata da Yvonne Strahovski;
•       Mafioso ucraino interpretato da Ray Stevenson


[img]image[/img]


[img]image[/img]

 Un altro anno è passato ed eccoci ad affrontare una nuova stagione di Dexter con il suo sempre presente e più pericolo "Passaggero Oscuro". Se la sesta stagione era tutta incentrata sulla fede, quest'ultima sarà concentrata tutta sul "Prezzo della Verità", visto il finale che ci ha lasciato a bocca aperta, aprendo nelle nostre menti tante domande alle quali avremo le risposte in questa nuova stagione. Dexter sarà decisamente sotto pressione, ma non riuscirà a trattenersi dall’uccidere di nuovo per molto. Inoltre vedremo apparire nuovi personaggi tra cui un ucraino russo, con il quale Dexter avrà a che fare, e una donna Hannah, dal passato difficile, con la quale Dexter si ritroverà a lavorare, iniziando a sospettare che nasconda qualcosa.
Inoltre sentiremo ancora parlare del "Macellaio della Baia di Miami" in inglese “bay harbor butcher”, di Doakes, del fratellino Rudy, Lundy personaggi che ancora causeranno problemi a Dexter. 
Buona Visione 

[img]image[/img]

1.    Are You...? 
2.   Sunshine and Frosty Swirl
3.   Buck the system
4.   Run
5.   Swin Deep
6.   Do the wrong Thing
7.   Chemistry
8.   Argentina
9.   Helter Skelter
10.  The dark..whatever
11.  Do you see what i see
12.  Lethal injection


[img]image[/img]

[img]image[/img]


Programma usato: Yamb

Sottotitoli impressi a video

Si ringrazia il gruppo Itasa per l'ottimo lavoro sui sottotitoli

General
Complete name                    : Dexter.2012.S07E01.HDTV.x264.Sub_Ita-[iDN_CreW].mp4
Format                           : MPEG-4
Format profile                   : Base Media
Codec ID                         : isom
File size                        : 367 MiB
Duration                         : 54mn 43s
Overall bit rate                 : 939 Kbps
Encoded date                     : UTC 2012-09-30 18:48:02
Tagged date                      : UTC 2012-09-30 18:48:02
Writing application              : Yamb 2.1.0.0 [http://yamb.unite-video.com]

Video
Format                           : AVC
Format/Info                      : Advanced Video Codec
Format profile                   : High@L3.1
Format settings, CABAC           : Yes
Format settings, ReFrames        : 5 frames
Codec ID                         : avc1
Codec ID/Info                    : Advanced Video Coding
Duration                         : 54mn 42s
Bit rate mode                    : Variable
Bit rate                         : 810 Kbps
Maximum bit rate                 : 3 507 Kbps
Width                            : 720 pixels
Height                           : 404 pixels
Display aspect ratio             : 16/9
Frame rate mode                  : Constant
Frame rate                       : 23.976 fps
Resolution                       : 24 bits
Colorimetry                      : 4:2:0
Scan type                        : Progressive
Bits/(Pixel*Frame)               : 0.116
Stream size                      : 317 MiB (86%)
Writing library                  : x264 core 128 r2216 198a7ea
Encoding settings                : cabac=1 / ref=5 / deblock=1:0:0 / analyse=0x3:0x113 / me=umh / subme=8 / psy=1 / psy_rd=1.00:0.00 / mixed_ref=1 / me_range=16 / chroma_me=1 / trellis=1 / 8x8dct=1 / cqm=0 / deadzone=21,11 / fast_pskip=1 / chroma_qp_offset=-2 / threads=18 / lookahead_threads=3 / sliced_threads=0 / nr=0 / decimate=1 / interlaced=0 / bluray_compat=0 / constrained_intra=0 / bframes=3 / b_pyramid=2 / b_adapt=2 / b_bias=0 / direct=3 / weightb=1 / open_gop=0 / weightp=2 / keyint=250 / keyint_min=23 / scenecut=40 / intra_refresh=0 / rc_lookahead=50 / rc=crf / mbtree=1 / crf=19.0 / qcomp=0.60 / qpmin=0 / qpmax=69 / qpstep=4 / ip_ratio=1.40 / aq=1:1.00
Encoded date                     : UTC 2012-10-01 02:03:53
Tagged date                      : UTC 2012-09-30 18:49:58

Audio
Format                           : AAC
Format/Info                      : Advanced Audio Codec
Format version                   : Version 4
Format profile                   : LC
Format settings, SBR             : No
Codec ID                         : 40
Duration                         : 54mn 42s
Bit rate mode                    : Variable
Bit rate                         : 125 Kbps
Maximum bit rate                 : 161 Kbps
Channel(s)                       : 2 channels
Channel positions                : L R
Sampling rate                    : 48.0 KHz
Resolution                       : 16 bits
Stream size                      : 48.8 MiB (13%)
Encoded date                     : UTC 2012-09-30 18:49:52
Tagged date                      : UTC 2012-09-30 18:49:58

Text
Format                           : Timed text
Codec ID                         : tx3g
Duration                         : 54mn 43s
Bit rate mode                    : Variable
Bit rate                         : 77 bps
Stream size                      : 30.9 KiB (0%)
Encoded date                     : UTC 2012-09-30 18:49:58
Tagged date                      : UTC 2012-09-30 18:49:58

[img]image[/img] 


[img]image[/img]
[img]image[/img]
[img]image[/img]

Ringrazio Wiki, Badtv per le informazioni che hanno permesso la realizzazione della release, ed inoltre il nuovo gruppo EVOLVE per il video.
Dexter.2012.S07E09.HDTV.x264.Sub_Ita-[iDN_CreW]/Dexter.2012.S07E09.HDTV.x264.Sub_Ita-[iDN_CreW].mp4 441.877 MB
Dexter.2012.S07E09.HDTV.x264.Sub_Ita-[iDN_CreW]/iDN_CreW Leggimi.txt 294 B
Gathering some info...

Register and log in Isohunt and see no captcha anymore!

4000 symbols left
Hash 91bf8bfc5c8944b17466913980a85bfd531feac9

Related torrents for "Dexter 2012 S07E09 HDTV x264 Sub_Ita-[iDN_CreW]"

Torrent search:

season 07 x264 hdtv episode 09 2012