Attack of the Show 2012 11 26 x264 OzQuant

Size 310.06 MB   2 seeders     Added 2012-11-27 14:41:30

Stream torrent
Starting‥ You need BitLord! Get it from BitLord.com
To download or stream you need BitLord. Visit them at BitLord.com
[size=200]Episode Info[/size]
Tonight on Attack of the Show with Matt Mira and Candace Bailey, we sit down with Shaun White for his White Christmas promotion, we review the new Amazon Kindle Fire 8.9 tablet and we check out new Threads for the holidays!
[size=200]File Info[/size]
Format : MPEG-4
Format profile : Base Media / Version 2
Codec ID : mp42
File size : 296 MiB
Duration : 43mn 38s
Overall bit rate mode : Variable
Overall bit rate : 947 Kbps
[size=200]Video[/size]
ID : 1
Format : AVC
Format/Info : Advanced Video Codec
Format profile : Main@L3.0
Format settings, CABAC : Yes
Format settings, ReFrames : 4 frames
Codec ID : avc1
Codec ID/Info : Advanced Video Coding
Duration : 43mn 38s
Bit rate mode : Variable
Bit rate : 879 Kbps
Width : 528 pixels
Height : 416 pixels
Display aspect ratio : 16:9
Frame rate mode : Constant
Frame rate : 25.000 fps
Color space : YUV
Chroma subsampling : 4:2:0
Bit depth : 8 bits
Scan type : Progressive
Bits/(Pixel*Frame) : 0.160
Stream size : 274 MiB (93%)
Writing library : x264 core 112
[size=200]Audio[/size]
ID : 2
Format : AAC
Format/Info : Advanced Audio Codec
Format profile : LC
Codec ID : 40
Duration : 43mn 38s
Bit rate mode : Variable
Bit rate : 64.0 Kbps
Maximum bit rate : 140 Kbps
Channel(s) : 2 channels
Channel positions : Front: L R
Sampling rate : 32.0 KHz
Compression mode : Lossy
Stream size : 20.0 MiB (7%)
Attack.of.the.Show.2012.11.26.x264.OzQuant.mp4 310.06 MB
Gathering some info...

Register and log in Isohunt and see no captcha anymore!

4000 symbols left
Hash 19FE0EF9483B9FFBD7B2E4623CCCA92B9C92CF3E

Related torrents for "Attack of the Show 2012 11 26 x264 OzQuant"

Torrent search:

x264 2012