Operacao Presente BDRip BR avi

Size 835.184 MB   0 seeders     Added 2012-11-27 18:35:53

Stream torrent
Starting‚Ä• You need BitLord! Get it from BitLord.com
To download or stream you need BitLord. Visit them at BitLord.com
IMDb:  http://www.imdb.com/title/tt0903624/
-------------------------------------------
The Hobbit: An Unexpected Journey (2012) DVDRip_XviD.AC3 - ZiCHNGX
------------------------------------------------------------------
Details:
-------
Video
ID                               : 0
Format                           : MPEG-4 Visual
Format profile                   : AdvancedSimple@L5
Format settings, BVOP            : Yes
Format settings, QPel            : No
Format settings, GMC             : No warppoints
Format settings, Matrix          : Custom
Codec ID                         : XVID
Codec ID/Hint                    : XviD
Duration                         : 1h 55mn
Bit rate                         : 1 631 Kbps
Width                            : 1080 pixels
Height                           : 720 pixels
Display aspect ratio             : 2.35:1
Frame rate                       : 30 fps
Resolution                       : 1920*1040
Colorimetry                      : 4:2:0
Scan type                        : Progressive
Bits/(Pixel*Frame)               : 0.311
Stream size                      : 513 MiB (99%)
Writing library                  : XviD 58
Audio
ID                               : 1
Format                           : AC-3
Format/Info                      : Audio Coding 3
Codec ID                         : 2000
Duration                         : 1h 55mn
Bit rate mode                    : Constant
Bit rate                         : 384 Kbps
Channel(s)                       : 6 channels
Channel positions                : Front: L C R, Surround: L R, LFE
Sampling rate                    : 48.0 KHz
Stream size                      : 513 MiB (19%)
Alignment                        : Aligned on interleaves
Interleave, duration             : 64 ms (1.54 video frames)
Interleave, preload duration     : 192 ms
-----------------------------------------
Plot:
----
A curious Hobbit, Bilbo Baggins, journeys to the Lonely Mountain 
with a vigorous group of Dwarves to reclaim a treasure stolen 
from them by the dragon Smaug.
-----------------------------
Screenshots:
-----------
-----------------------------------------------		
Operacao.Presente.BDRip.BR.avi 835.184 MB
Gathering some info...

Register and log in Isohunt and see no captcha anymore!

4000 symbols left
Hash 15634A33AFE0D7F67D132F200A21EE866C06D128