imdb
rating

4.9
The Twilight Saga: Eclipse

The Twilight Saga: Eclipse (2010)

Adventure, Drama, Fantasy, Romance

Full description
quality   dvd dvdrip telesync cam h264

The Twilight Saga - Eclipse (2010) [XviD - Italian English Ac3 5.1 - Sub Ita Eng] MIRCrew [TNT Village]

Size 1.81 GB   203 seeders     Added 2012-11-27 20:40:40

Stream torrent
Starting‥ You need BitLord! Get it from BitLord.com
To download or stream you need BitLord. Visit them at BitLord.com
The Twilight Saga - Eclipse (2010) [XviD - Italian English Ac3 5.1 - Sub Ita Eng] MIRCrew [TNT Village]


[color=#3366FF][b][IMG]image[/IMG]

The Twilight Saga - Eclipse (2010)




[IMG]image[/IMG]


[URL=http://www.imdb.it/title/tt1325004/][IMG]image[/IMG][/URL] 

[IMG]image[/IMG]

[IMG]image[/IMG]

Titolo originale 	The Twilight Saga: Eclipse
Lingua originale 	Inglese
Paese di produzione 	USA
Anno 	2010
Durata 	124 min

The Twilight Saga: Eclipse è un film del 2010 diretto da David Slade. Sceneggiato da Melissa Rosenberg, è il terzo film tratto dalla serie di Twilight. La pellicola è l'adattamento 

cinematografico dell'omonimo romanzo del 2007 di Stephenie Meyer e seguito di The Twilight Saga: New Moon del 2009.

Rapporto 	2.35:1
Genere 	drammatico, fantastico , romantico, azione
Regia 	David Slade
Soggetto 	dal romanzo di Stephenie Meyer
Sceneggiatura 	Melissa Rosenberg
Produttore 	Wyck Godfrey, Karen Rosenfelt
Produttore esecutivo 	Marty Bowen, Greg Mooradian, Mark Morgan, Guy Oseary
Casa di produzione 	Imprint Entertainment, Summit Entertainment
Distribuzione (Italia) 	Eagle Pictures
Fotografia 	Javier Aguirresarobe
Montaggio 	Art Jones, Nancy Richardson
Effetti speciali 	Image Engine Design, Proof
Musiche 	Howard Shore
Scenografia 	Paul D. Austerberry
Costumi 	Tish Monaghan
Trucco 	Cristina Patterson Ceret

Premi

 3 Scream Awards 2010,
 5 MTV Movie Awards 2011: miglior film, MTV Movie Award alla migliore performance maschile (Robert Pattinson), MTV Movie Award alla miglior performance femminile (Kristen Stewart), MTV 

Movie Award al miglior bacio (Kristen Stewart) e (Robert Pattinson), MTV Movie Award al miglior combattimento (Robert Pattinson) contro (Bryce Dallas Howard) e (Xavier Samuel)

[IMG]image[/IMG]

[IMG]image[/IMG]

[IMG]image[/IMG]

 Kristen Stewart: Bella Swan
 Robert Pattinson: Edward Cullen
 Taylor Lautner: Jacob Black
 Ashley Greene: Alice Cullen
 Jackson Rathbone: Jasper Hale
 Nikki Reed: Rosalie Hale
 Kellan Lutz: Emmett Cullen
 Peter Facinelli: Carlisle Cullen
 Elizabeth Reaser: Esme Cullen
 Billy Burke: Charlie Swan
 Bryce Dallas Howard: Victoria
 Xavier Samuel: Riley
 Dakota Fanning: Jane

Doppiatori italiani

 Federica De Bortoli: Bella Swan
 Stefano Crescentini: Edward Cullen
 David Chevalier: Jacob Black
 Christian Iansante: Charlie Swan
 Ilaria Latini: Alice Cullen
 Sandro Acerbo: Carlisle Cullen
 Giò Giò Rapattoni: Esme Cullen
 Davide Albano: Jasper Hale
 Laura Lenghi: Rosalie Hale
 Marco Vivio: Emmett Cullen

[IMG]image[/IMG]

[IMG]image[/IMG]

Bella torna a Forks con Edward dopo la disavventura con i Volturi in Italia. La ragazza deve scegliere tra continuare la sua amicizia con il licantropo Jacob o smettere di vederlo dato che 

Edward è estremamente infastidito dal loro rapporto. Intanto, Victoria, la vampira nomade che faceva parte del clan di James, segue Bella per vendicare la morte del suo compagno ucciso 

dalla famiglia Cullen. La sua presenza diventa tangibile per Edward e Bella quando sui giornali appare la notizia di vari efferati delitti compiuti da sconosciuti nella città di Seattle. I 

ragazzi intanto, si preparano per il diploma, evento che significherà la fine della vita mortale di Bella, dato che Carlisle le aveva promesso che dopo essersi diplomata l'avrebbe 

trasformata in vampiro...............

[IMG]image[/IMG]

Bella once again finds herself surrounded by danger as Seattle is ravaged by a string of mysterious killings and a malicious vampire continues her quest for revenge. In the midst of it all, 

she is forced to choose between her love for Edward and her friendship with Jacob -- knowing that her decision has the potential to ignite the struggle between vampire and werewolf. With 

her graduation quickly approaching, Bella is confronted with the most important decision of her life.......

[IMG]image[/IMG]


[IMG]image[/IMG]

General
Complete name : The Twilight Saga Eclipse (2010).avi
Format : AVI
Format/Info : Audio Video Interleave
File size : 1.66 GiB
Duration : 1h 58mn
Overall bit rate : 1 995 Kbps
Writing application : VirtualDubMod 1.5.4.1 (build 2178/release)
Writing library : VirtualDubMod build 2178/release

Video
ID : 0
Format : MPEG-4 Visual
Format profile : Advanced Simple@L5
Format settings, BVOP : Yes
Format settings, QPel : No
Format settings, GMC : No warppoints
Format settings, Matrix : Custom
Codec ID : XVID
Codec ID/Hint : XviD
Duration : 1h 58mn
Bit rate : 1 090 Kbps
Width : 720 pixels
Height : 304 pixels
Display aspect ratio : 2.35:1
Frame rate : 25.000 fps
Color space : YUV
Chroma subsampling : 4:2:0
Bit depth : 8 bits
Scan type : Progressive
Bits/(Pixel*Frame) : 0.199
Stream size : 928 MiB (55%)
Writing library : XviD 1.2.1 (UTC 2008-12-04)

Audio #1
ID : 1
Format : AC-3
Format/Info : Audio Coding 3
Mode extension : CM (complete main)
Codec ID : 2000
Duration : 1h 58mn
Bit rate mode : Constant
Bit rate : 448 Kbps
Channel(s) : 6 channels
Channel positions : Front: L C R, Side: L R, LFE
Sampling rate : 48.0 KHz
Bit depth : 16 bits
Stream size : 381 MiB (22%)
Alignment : Aligned on interleaves
Interleave, duration : 96 ms (2.40 video frames)
Interleave, preload duration : 96 ms
Language : Italian

Audio #2
ID : 2
Format : AC-3
Format/Info : Audio Coding 3
Mode extension : CM (complete main)
Codec ID : 2000
Duration : 1h 58mn
Bit rate mode : Constant
Bit rate : 448 Kbps
Channel(s) : 6 channels
Channel positions : Front: L C R, Side: L R, LFE
Sampling rate : 48.0 KHz
Bit depth : 16 bits
Stream size : 381 MiB (22%)
Alignment : Aligned on interleaves
Interleave, duration : 96 ms (2.40 video frames)
Interleave, preload duration : 96 ms
Language : English




[IMG]image[/IMG]

[/color][/b]	
The Twilight Saga Eclipse (2010).avi 1.779 GB
The Twilight Saga Eclipse (2010).idx 340.16 KB
The Twilight Saga Eclipse (2010).sub 30.792 MB
Gathering some info...

Register and log in Isohunt and see no captcha anymore!

4000 symbols left
Hash ED63C6DBBD0FD53E96E43E9FFB33DACF25FC45C7

Related torrents for "The Twilight Saga - Eclipse (2010) [XviD - Italian English Ac3 5.1 - Sub Ita Eng] MIRCrew [TNT Village]"

Torrent search:

italian english 2010