imdb
rating

7.9
Chicago Fire

Chicago Fire (2012)

Drama

Full description

Chicago Fire 2012 S01E01 Pilot TVRip XviD-RoR [Lektor PL]

Size 461.355 MB   2 seeders     Added 2012-11-27 22:41:03

Stream torrent
Starting‥ You need BitLord! Get it from BitLord.com
To download or stream you need BitLord. Visit them at BitLord.com
Tytuł: ..:: Chicago Fire ::..
Produkcja: USA
Gatunek: Akcja, Dramat
Data premiery: 10.10.2012 - season 1
Reżyseria: Jeffrey Nachmanoff
Zdjęcia: Lisa Wiegand
Stacja telewizyjna: NBC
Czas trwania odcinka: 45 min.
http://www.filmweb.pl/serial/Chicago+Fire-2012-647835
http://www.nbc.com/chicago-fire/
Napisy PL: http://grupahatak.pl/ oraz: http://napisy24.pl/katalog/
O B S A D A:
Taylor Kinney ... Kelly Severide
Jesse Spencer ... Matthew Casey
Monica Raymund ... Gabriela Dawson
Eamonn Walker ... Walter Boden
David Eigenberg ... Christopher Herrmann
Charlie Barnett ... Peter Mills
Mo Gallini ... Joe Vargas
Lauren German ... Leslie Shay
Christian Stolte ... Mouch
Teri Reeves ... Hallie Casey
O P I S S E R I A L U:
Żadna praca nie jest bardziej stresująca, niebezpieczna, czy ekscytująca niż strażaków - członków Oddziału Ratunkowego i sanitariuszy z Chicago Firehouse 51. Są to odważni mężczyźni i kobiety, którzy stają oko w oko z niebezpieczeństwem, reagują, gdy wszyscy inni boją się podjąć działanie. Jednak ogromne obowiązki w pracy odbijają piętno na ich życiu osobistym. Gdy tragedia spotyka jednego z członków zespołu, w powietrzu unosi się sporo poczucia winy i żalu. Porucznik Matthew Casey (Jesse Spencer) stara się pracować normalnie, lecz nie może porozumieć się z porucznikiem Kelly Severidem (Taylor Kinney), z Oddziału Ratunkowego, z którym wzajemnie obwiniają się o śmierć jednego z członków zespołu. Gdy jednak zachodzi wyższa konieczność, są w stanie zakopać wojenny topór i stanąć na wysokości zadania, ratując życie potrzebującym pomocy.
Chicago Fire S01E01 Pilot 2012 TVRip XviD-RoR [Lektor PL].avi
Format : AVI
Format/Info : Audio Video Interleave
File size : 440 MiB
Duration : 40mn 41s
Overall bit rate mode : Variable
Overall bit rate : 1 512 Kbps
Writing application : VirtualDubMod 1.5.10.2 (build 2540/release)
Writing library : VirtualDubMod build 2540/release
Video
ID : 0
Format : MPEG-4 Visual
Format profile : Advanced Simple@L5
Format settings, BVOP : 1
Format settings, QPel : No
Format settings, GMC : No warppoints
Format settings, Matrix : Default (MPEG)
Codec ID : XVID
Codec ID/Hint : XviD
Duration : 40mn 41s
Bit rate : 1 369 Kbps
Width : 704 pixels
Height : 384 pixels
Display aspect ratio : 1.85:1
Frame rate : 25.000 fps
Color space : YUV
Chroma subsampling : 4:2:0
Bit depth : 8 bits
Scan type : Progressive
Compression mode : Lossy
Bits/(Pixel*Frame) : 0.202
Stream size : 398 MiB (91%)
Writing library : XviD 64
Audio
ID : 1
Format : MPEG Audio
Format version : Version 1
Format profile : Layer 3
Mode : Joint stereo
Mode extension : MS Stereo
Codec ID : 55
Codec ID/Hint : MP3
Duration : 40mn 41s
Bit rate mode : Variable
Bit rate : 128 Kbps
Channel(s) : 2 channels
Sampling rate : 48.0 KHz
Compression mode : Lossy
Stream size : 37.9 MiB (9%)
Alignment : Aligned on interleaves
Interleave, duration : 24 ms (0.60 video frame)
Interleave, preload duration : 504 ms
Writing library : LAME3.90.
Encoding settings : -m j -V 4 -q 2 -lowpass 17.6 --abr 128
Chicago Fire S01E01 Pilot 2012 TVRip XviD-RoR [Lektor PL].avi 461.355 MB
Gathering some info...

Register and log in Isohunt and see no captcha anymore!

4000 symbols left
Hash ED59ACB82CA0088059F4BD5C662D848AA450B2DB

Related torrents for "Chicago Fire 2012 S01E01 Pilot TVRip XviD-RoR [Lektor PL]"

Torrent search:

season 01 episode 01 hdtv 2012