imdb
rating

6.3
Knight and Day

Knight and Day (2010)

Action, Comedy, Romance

Full description

Knight and Day 2010 Extended Cut 720p BluRay x264-AVS720 mkv

Size 7.033 GB   1 seeders     Added 2012-11-28 06:36:47

Stream torrent
Starting‥ You need BitLord! Get it from BitLord.com
To download or stream you need BitLord. Visit them at BitLord.com
Format                                   : Matroska
Format version                           : Version 2
File size                                : 6.55 GiB
Duration                                 : 1h 57mn
Overall bit rate                         : 8 007 Kbps
Encoded date                             : UTC 2010-11-14 06:35:17
Writing application                      : mkvmerge v3.3.0 (Language) built on Mar 24 2010 14:59:24
Writing library                          : libebml v0.8.0 + libmatroska v0.9.0
Video
ID                                       : 1
Format                                   : AVC
Format/Info                              : Advanced Video Codec
Format profile                           : High@L4.1
Format settings, CABAC                   : Yes
Format settings, ReFrames                : 5 frames
Codec ID                                 : V_MPEG4/ISO/AVC
Duration                                 : 1h 57mn
Bit rate                                 : 6 503 Kbps
Width                                    : 1 280 pixels
Height                                   : 528 pixels
Display aspect ratio                     : 2.40:1
Frame rate mode                          : Constant
Frame rate                               : 23.976 fps
Color space                              : YUV
Chroma subsampling                       : 4:2:0
Bit depth                                : 8 bits
Scan type                                : Progressive
Bits/(Pixel*Frame)                       : 0.401
Stream size                              : 5.18 GiB (79%)
Writing library                          : x264 core 107 r1745 4785e8e
Audio
ID                                       : 2
Format                                   : DTS
Format/Info                              : Digital Theater Systems
Mode                                     : 16
Format settings, Endianness              : Big
Codec ID                                 : A_DTS
Duration                                 : 1h 57mn
Bit rate mode                            : Constant
Bit rate                                 : 1 509 Kbps
Channel(s)                               : 6 channels
Channel positions                        : Front: L C R, Side: L R, LFE
Sampling rate                            : 48.0 KHz
Bit depth                                : 24 bits
Compression mode                         : Lossy
Stream size                              : 1.23 GiB (19%)
Language                                 : English
Thumbnails:
		
Knight.and.Day.2010.Extended.Cut.720p.BluRay.x264-AVS720.mkv 7.033 GB
Gathering some info...

Register and log in Isohunt and see no captcha anymore!

4000 symbols left
Hash C488553E924156608025F00C5E3FE85A1DBF885D

Related torrents for "Knight and Day 2010 Extended Cut 720p BluRay x264-AVS720 mkv"

Torrent search:

x264 hd 2010 bd