Dogman 2012 DVDRip Xvid zip

Size 844.813 MB   0 seeders     Added 2012-11-29 03:02:37

Stream torrent
Starting‥ You need BitLord! Get it from BitLord.com
To download or stream you need BitLord. Visit them at BitLord.com
Runtime ..........:1:30                                                      │\r\n│ IMDb URL ........:http://www.imdb.com/title/tt2069756/                       │\r\n│ Language .........:English                                                   │\r\n│ File Size ........:800mb                                                     │\r\n│ Release Date ......... 2012                                                  │\r\n│ Source       ......... Your gf                                               │\r\n│ File Type    ......... Single AVI                                            │\r\n│ PS3 Compatible ....... Throw that Shit out the window                        │\r\n│ Genre        ......... Horror/Thriller                                       │\r\n│                                                                              │\r\n│                                                                              │\r\n│ Video                                                                        │\r\n│  ID                               : 0                                        │\r\n│  Format                           : MPEG-4 Visual                            │\r\n│  Format profile                   : Advanced Simple@L5                       │\r\n│  Format settings, BVOP            : Yes                                      │\r\n│  Format settings, QPel            : No                                       │\r\n│  Format settings, GMC             : No warppoints                            │\r\n│  Format settings, Matrix          : Custom                                   │\r\n│  Codec ID                         : XVID                                     │\r\n│  Codec ID/Hint                    : XviD                                     │\r\n│  Duration                         : 1h 30mn                                  │\r\n│  Bit rate                         : 1281kbps                                 │\r\n│  Width                            : 640pixels                                │ \r\n│  Height                           : 352pixels                                │\r\n│  Display aspect ratio             : 16:9                                     │\r\n│  Frame rate                       : 25.000fps                                │\r\n│  Color space                      : YUV                                      │ \r\n│  Chroma subsampling               : 4:2:0                                    │\r\n│  Bit depth                        : 8 bits                                   │\r\n│  Scan type                        : Progressive                              │\r\n│  Bits/(Pixel*Frame)               : 0.234                                    │ \r\n│  Stream size                      : 892 MiB (86%)                            │\r\n│  Writing library                  : XviD 1.2.1 (UTC 2008-12-04)              │\r\n│                                                                              │\r\n│                                                                              │\r\n│ Audio                                                                        │\r\n│ ID                               : 1                                         │\r\n│ Format                           : AC3                                       │\r\n│ Format/Info                      : MPEG                                      │\r\n│ Mode extension                   : CM (complete main)                        │\r\n│ Codec ID                         : 2000                                      │\r\n│ Duration                         : 1h 30mn                                   │\r\n│ Bit rate mode                    : Constant                                  │\r\n│ Bit rate                         : 128kbps                                   │\r\n│ Channel(s)                       : 2channels                                 │\r\n│ Channel positions                : Front: L R                                │\r\n│ Sampling rate                    : 48.0 KHz                                  │\r\n│ Bit depth                        : 16 bits                                   │\r\n│ Stream size                      : 302 MiB                                   │\r\n│ Alignment                        : Aligned on interleaves                    │\r\n│ Interleave, duration             : 42 ms (1.00 video frame)                  │\r\n│ Interleave, preload duration     : 512 ms
Dogman 2012 DVDRip Xvid.zip 844.813 MB
Gathering some info...

Register and log in Isohunt and see no captcha anymore!

4000 symbols left
Hash 5402d9dbeba7cf74b6d99f5ecdffbf0d32329c4e