imdb
rating

8.4
Lion of the Desert

Lion of the Desert (1981)

Action, History, War

Full description
quality   dvdrip x264 dvdr hd bd fullhd

Lion Of The Desert 1981 720p BluRay Dual Audio Hindi-English By K@rtik exd Exclusive mkv

Size 1.708 GB   2 seeders     Added 2012-11-29 05:00:30

Stream torrent
Starting‥ You need BitLord! Get it from 1BitLord.com
To download or stream you need BitLord. Visit them at BitLord.com
Lion.Of.The.Desert.[1981].720p.BluRay. [Dual Audio] [Hindi-English] By K@rtik [exd Exclusive]





Format : Matroska
Format version : Version 2
File size : 1.59 GiB
Duration : 2h 53mn
Overall bit rate : 1 313 Kbps
Movie name : Lion.Of.The.Desert.[1981].720p.BluRay. [Dual Audio] [Hindi-English] By K@rt


Video

Codec ID : V_MPEG4/ISO/AVC
Duration : 2h 53mn
Bit rate : 964 Kbps
Width : 1 280 pixels
Height : 688 pixels
Display aspect ratio : 1.85:1
Frame rate mode : Constant
Frame rate : 23.976 fps
Color space : YUV
Chroma subsampling : 4:2:0
Bit depth : 8 bits
Scan type : Progressive
Bits/(Pixel*Frame) : 0.046
Stream size : 1.13 GiB (71%)
Title : K@rtik
Writing library : x264 core 125 r2200 999b753



Audio 1

Codec ID : A_AC3
Duration : 2h 53mn
Bit rate mode : Constant
Bit rate : 224 Kbps
Channel(s) : 6 channels
Channel positions : Front: L C R, Side: L R, LFE
Sampling rate : 48.0 KHz
Bit depth : 16 bits
Compression mode : Lossy
Delay relative to video : 500ms
Stream size : 278 MiB (17%)
Title : K@rtik
Language : English



Audio 2

Codec ID : A_AC3
Duration : 2h 53mn
Bit rate mode : Constant
Bit rate : 128 Kbps
Channel(s) : 2 channels
Channel positions : Front: L R
Sampling rate : 44.1 KHz
Bit depth : 16 bits
Compression mode : Lossy
Delay relative to video : 55s 500ms
Stream size : 159 MiB (10%)
Title : K@rtik
Language : Hindi
Default : Yes







Lion.Of.The.Desert.[1981].720p.BluRay. [Dual Audio] [Hindi-English] By K@rtik [exd Exclusive].mkv 1.708 GB
Gathering some info...

Register and log in Isohunt and see no captcha anymore!

4000 symbols left
Hash 93C3017EEFB02CDB5FBA36EC31C9092E7C000181

Related torrents for "Lion Of The Desert 1981 720p BluRay Dual Audio Hindi-English By K@rtik exd Exclusive mkv"

Torrent search:

english 1981 hd hindi bd