imdb
rating

5.6
Four Christmases

Four Christmases (2008)

Comedy, Drama, Romance

Full description
quality   x264 bd fullhd dvdrip hd dvdr

Four Christmases (2008) / DVDrip [x264-AAC-MP4]

Size 631.221 MB   0 seeders     Added 2012-11-29 06:54:14

Stream torrent
Starting‥ You need BitLord! Get it from BitLord.com
To download or stream you need BitLord. Visit them at BitLord.com
Brad and Kate have been together three years, in love, having fun, doing all sorts of things together with no intention of marriage or children. Christmas morning, they're on their way to Fiji, having told their two sets of divorced parents that they're off to do charity work. Through a fluke, they have no choice but to visit each of their four idiosyncratic parents. As the day progresses, Brad and Kate remember growing up, each learns more about the other, and Kate realizes that her life may not be as good as it could be. Do they know each other well enough to weather the storms families bring?

Video
ID                                       : 1
Format                                   : AVC
Format/Info                              : Advanced Video Codec
Format profile                           : High@L3.1
Format settings, CABAC                   : Yes
Format settings, ReFrames                : 5 frames
Codec ID                                 : avc1
Codec ID/Info                            : Advanced Video Coding
Duration                                 : 1h 28mn
Bit rate                                 : 885 Kbps
Maximum bit rate                         : 4 334 Kbps
Width                                    : 1 280 pixels
Height                                   : 720 pixels
Display aspect ratio                     : 16:9
Frame rate mode                          : Constant
Frame rate                               : 23.976 fps
Color space                              : YUV
Chroma subsampling                       : 4:2:0
Bit depth                                : 8 bits
Scan type                                : Progressive
Bits/(Pixel*Frame)                       : 0.040
Stream size                              : 559 MiB (93%)
Writing library                          : x264 core 116 r2074 2641b9e


Audio
ID                                       : 2
Format                                   : AAC
Format/Info                              : Advanced Audio Codec
Format profile                           : HE-AAC / LC
Codec ID                                 : 40
Duration                                 : 1h 28mn
Bit rate mode                            : Variable
Bit rate                                 : 64.0 Kbps
Maximum bit rate                         : 70.9 Kbps
Channel(s)                               : 2 channels
Channel positions                        : Front: L R
Sampling rate                            : 48.0 KHz / 24.0 KHz
Compression mode                         : Lossy
Stream size                              : 40.5 MiB (7%)
Encoded date                             : UTC 2011-12-24 04:46:52
Tagged date                              : UTC 2011-12-24 04:47:07
		
Four Christmases (2008).mp4 631.221 MB
Gathering some info...

Register and log in Isohunt and see no captcha anymore!

4000 symbols left
Hash 601123CB8054EBB72D8D4BBFE942726B23B57D9B

Related torrents for "Four Christmases (2008) / DVDrip [x264-AAC-MP4]"

Torrent search:

dvdrip x264 2008