Super striptis - Super Strip 3D(2010)[BDRip.x264-AC3/SBS][Eng]

Size 1.529 GB   6 seeders     Added 2012-11-29 23:20:29

Stream torrent
Starting‥ You need BitLord! Get it from 1BitLord.com
To download or stream you need BitLord. Visit them at BitLord.com
[center][img]image[/img]

Produkcja : USA
Data: 2010
Reżyseria: Brak Danych
Scenariusz:Brak Danych
Gatunek Erotyk 
Czas Trwania: 45 min.
 
Opis:

Typical striptease, very delicate, with super girls and music.

Typowy striptis, bardzo delikatny, z niezłymi laskami i muzyką.

image

Obsada:

Tancerki

Dane techniczne:

uper striptis w 3D(2010) Delikatnie - alE13.mkv
Format : Matroska
File size : 1.13 GiB
Duration : 45mn 19s
Overall bit rate : 3 585 Kbps
Movie name : Super striptiz w 3D - alE3
Encoded date : UTC 2012-11-29 14:42:38
Writing application : mkvmerge v5.8.0 ('No Sleep / Pillow') built on Sep 2 2012 15:37:04
Writing library : libebml v1.2.3 + libmatroska v1.3.0

Video
ID : 1
Format : AVC
Format/Info : Advanced Video Codec
Format profile : Main@L4.2
Format settings, CABAC : Yes
Format settings, ReFrames : 2 frames
Muxing mode : Container profile=Unknown@4.2
Codec ID : V_MPEG4/ISO/AVC
Duration : 45mn 19s
Bit rate : 3 383 Kbps
Width : 1 920 pixels
Height : 1 080 pixels
Display aspect ratio : 16:9
Frame rate mode : Variable
Frame rate : 50.000 fps
Color space : YUV
Chroma subsampling : 4:2:0
Bit depth : 8 bits
Scan type : Progressive
Bits/(Pixel*Frame) : 0.033
Stream size : 1.05 GiB (93%)
Writing library : x264 core 112 r1834 a51816a

Audio
ID : 2
Format : AC-3
Format/Info : Audio Coding 3
Mode extension : CM (complete main)
Muxing mode : Header stripping
Codec ID : A_AC3
Duration : 45mn 19s
Bit rate mode : Constant
Bit rate : 192 Kbps
Channel(s) : 2 channels
Channel positions : Front: L R
Sampling rate : 48.0 KHz
Bit depth : 16 bits
Stream size : 62.2 MiB (5%)[/center]
Super striptis w 3D(2010) Delikatnie - alE13.mkv 1.218 GB
bonus.mkv 309.424 MB
vlcsnap-2012-11-29-16h10m23s163.jpg 160.101 KB
Gathering some info...

Register and log in Isohunt and see no captcha anymore!

4000 symbols left
Hash CDCC9DB1E38B8A128970A58AB9C153B6402120C7