Astérix Et Obélix au service de sa majesté (2012) FRENCH DVDRip XviD - PublicHD

Size 739.898 MB   0 seeders     Added 2012-11-30 02:43:10

Stream torrent
Starting‥ You need BitLord! Get it from BitLord.com
To download or stream you need BitLord. Visit them at BitLord.com
Astérix Et Obélix  au service de sa majesté (2012) FRENCH DVDRip XviD - PublicHD\r\n\r\nSTATS:\r\n\r\nVideo\r\nID                               : 0\r\nFormat                           : MPEG-4 Visual\r\nFormat profile                   : Advanced Simple@L5\r\nFormat settings, BVOP            : 2\r\nFormat settings, QPel            : No\r\nFormat settings, GMC             : No warppoints\r\nFormat settings, Matrix          : Default (MPEG)\r\nMuxing mode                      : Packed bitstream\r\nCodec ID                         : XVID\r\nCodec ID/Hint                    : XviD\r\nDuration                         : 1h 50mn\r\nBit rate                         : 986 Kbps\r\nWidth                            : 720 pixels\r\nHeight                           : 320 pixels\r\nDisplay aspect ratio             : 2.25:1\r\nFrame rate                       : 29.970 fps\r\nColor space                      : YUV\r\nChroma subsampling               : 4:2:0\r\nBit depth                        : 8 bits\r\nScan type                        : Progressive\r\nCompression mode                 : Lossy\r\nBits/(Pixel*Frame)               : 0.243\r\nStream size                      : 705 MiB (92%)\r\nWriting library                  : XviD 64\r\n\r\nAudio\r\n\r\nFormat                           : MPEG Audio\r\nFormat version                   : Version 1\r\nFormat profile                   : Layer 3\r\nMode                             : Joint stereo\r\nMode extension                   : MS Stereo\r\nCodec ID                         : 55\r\nCodec ID/Hint                    : MP3\r\nDuration                         : 1h 50mn\r\nBit rate mode                    : Constant\r\nBit rate                         : 128 Kbps\r\nChannel(s)                       : 2 channels\r\nSampling rate                    : 48.0 KHz\r\nCompression mode                 : Lossy\r\nStream size                      : 52 MiB (7%)\r\nAlignment                        : Split accross interleaves\r\nInterleave, duration             : 33 ms (1.00 video frame)\r\nInterleave, preload duration     : 500 ms\r\n\r\n                                                               
Astérix Et Obélix au service de sa majesté (2012) FRENCH DVDRip XviD - PublicHD/Astérix Et Obélix au service de sa majesté (2012) FRENCH DVDRip XviD - PublicHD.nfo 2.052 KB
Astérix Et Obélix au service de sa majesté (2012) FRENCH DVDRip XviD - PublicHD/cover.jpg 67.419 KB
Astérix Et Obélix au service de sa majesté (2012) FRENCH DVDRip XviD - PublicHD/Folder nou/Astérix Et Obélix au service de sa majesté (2012) FRENCH DVDRip XviD - PublicHD.rar 739.612 MB
Gathering some info...

Register and log in Isohunt and see no captcha anymore!

4000 symbols left
Hash f9b522140978bb90340c5fa2287d19e15abe6739

Related torrents for "Astérix Et Obélix au service de sa majesté (2012) FRENCH DVDRip XviD - PublicHD"

Torrent search:

dvdrip french 2012