Lichtmond 2 - Universe of Light 3D

Lichtmond 2 - Universe of Light 3D (2012)

Animation, Music

Full description
quality   x264 fullhd bd

Lichtmond 2: Universe of Light 3D (2012)[BDRip.x264-AC3 O/U][Eng]

Size 1.599 GB   1 seeders     Added 2012-11-30 17:40:59

Stream torrent
Starting‥ You need BitLord! Get it from 1BitLord.com
To download or stream you need BitLord. Visit them at BitLord.com
[center][img]image[/img]

Wersja filmu 3D: Over - Under

Produkcja : Germany
Firma: Blu Phase Media GmbH, Avenue Music
Data : 2012
Reżyseria: Giorgio & Martin Koppehele 
Projekt: Giorgio & Martin Koppehele
Gatunek: Relax,Muzyka
Muzyka: Giorgio, Suna, Martin & Gabi Koppehele, 
Alan Parsons, SubClones, Meera Fe, Karen Kassulat, 
I Muvrini
Czas: 00:53:08
 
Opis:

The impressive journey into the world of fantasy, in the moonlight, 
full the magical sounds of "Moonlight 2". Immerse yourself in the 
extraordinary music,for nearly an hour see the wonderful worlds.

Imponująca podróż do świata fantazji, w blasku księżyca, pełna 
magicznych dźwięków "Moonlight 2". Zanurz się w niezwykłą muzykę, 
przez niemal godzinę zobacz wspaniałe światy, których do tej pory 
nie widziałeś, ale na pewno o nich przyśnisz. To jest niesamowite 
wydanie Blu-ray, z niepowtarzalnym dźwiękiem z piękną , futurystyczną 
wizualizacją w 3D. Niech twój dom wypełni sięw jasnych kolorach 
i wysokiej jakości dźwięku Boskich dzieł Giorgio oraz Martin Koppehele.

[img]image[/img]
[img]image[/img]
[img]image[/img]
[img]image[/img]

Obsada:

Instrumenty:

Alan Parsons 
SubClones 
Manuel Lopez 
John Themis 
Giorgio 
Martin & Suna Koppehele

Taniec:

Penelope Guisasola

Dane techniczne:

Lichtmond 2 Universe of Light 3D (2012)-alE13.mkv
Format : Matroska
File size : 1.37 GiB
Duration : 53mn 8s
Overall bit rate : 3 699 Kbps
Movie name : Lichtmond 2 Universe of Light 3D (2012)-alE13
Encoded date : UTC 2012-11-30 07:22:21
Writing application : mkvmerge v5.8.0 ('No Sleep / Pillow') built on Sep 2 2012 15:37:04
Writing library : libebml v1.2.3 + libmatroska v1.3.0

Video
ID : 1
Format : AVC
Format/Info : Advanced Video Codec
Format profile : Main@L4.0
Format settings, CABAC : Yes
Format settings, ReFrames : 2 frames
Format settings, GOP : M=1, N=48
Muxing mode : Container profile=Unknown@4.0
Codec ID : V_MPEG4/ISO/AVC
Duration : 53mn 8s
Bit rate : 2 986 Kbps
Nominal bit rate : 3 229 Kbps
Width : 1 920 pixels
Height : 1 080 pixels
Display aspect ratio : 16:9
Frame rate mode : Variable
Frame rate : 24.000 fps
Color space : YUV
Chroma subsampling : 4:2:0
Bit depth : 8 bits
Scan type : Progressive
Bits/(Pixel*Frame) : 0.060
Stream size : 1.11 GiB (81%)
Writing library : x264 core 112 r1834 a51816a

Audio
ID : 2
Format : AC-3
Format/Info : Audio Coding 3
Mode extension : CM (complete main)
Muxing mode : Header stripping
Codec ID : A_AC3
Duration : 53mn 8s
Bit rate mode : Constant
Bit rate : 640 Kbps
Channel(s) : 6 channels
Channel positions : Front: L C R, Side: L R, LFE
Sampling rate : 48.0 KHz
Bit depth : 16 bits
Stream size : 243 MiB (17%)
Title : Music

Menu
00:00:00.000 : :1. Solar Dust Part 1
00:02:20.140 : :2. Solar Dust Part 2
00:06:28.388 : :3. Soul Affinity
00:11:34.694 : :4. Distant Dream
00:17:54.073 : :5. Universe of Light
00:23:56.435 : :6. Magic Forest
00:29:13.835 : :7. State of Mind
00:35:16.114 : :8. Moments of Joy (feat. I MURVINI & Karen Kassulat)
00:41:29.487 : :9. Precious Life (feat. ALAN PARSONS & the SubClones)
00:47:44.361 : :10. Lunar Dust
00:50:56.762 : :11. Credits[/center]
11.png 865.865 KB
22.jpg 133.531 KB
Lichtmond 2 Universe of Light 3D (2012)-alE13.mkv 1.475 GB
Gathering some info...

Register and log in Isohunt and see no captcha anymore!

4000 symbols left
Hash 927CB75DDC3A4CC6D4F7571FAFDCBB37B1F1F99D

Related torrents for "Lichtmond 2: Universe of Light 3D (2012)[BDRip.x264-AC3 O/U][Eng]"

Torrent search:

english x264 2012 bd