imdb
rating

6.1
Romeo Must Die

Romeo Must Die (2000)

Action, Crime, Thriller

Full description
quality   hdtv hd dvdrip x264 bd fullhd h264

Romeo Must Die (2000)[BDRip.x264-AC3][Eng]

Size 2.384 GB   0 seeders     Added 2012-11-30 17:41:09

Stream torrent
Starting‥ You need BitLord! Get it from 1BitLord.com
To download or stream you need BitLord. Visit them at BitLord.com
[center][img]image[/img]

gatunek: Thriller, Akcja, 
produkcja: USA, 
premiera: 2000-03-20 
reżyseria: Andrzej Bartkowiak, 
scenariusz: Eric Bernt, John Jarrell, 
muzyka: Stanley Clarke
zdjęcia: Glen MacPherson
Czas: 01:55:03
 
Opis:
An avenging cop seeks out his brother's killer and falls for the 
daughter of a businessman who is involved in a money-deal with 
his father. 
Na ekrany polskich kin wchodzi właśnie film "Romeo musi umrzeć" - 
obraz, który przebojem podbił serca (i kieszenie) widowni amerykańskiej. 
Nie byłoby się czym ekscytować, gdyby nie podkreślany do znudzenia 
przez dystrybutorów fakt, iż jego reżyserem jest nasz rodak, 
Andrzej Bartkowiak. Ten ceniony skądinąd operator, pracujący od lat w USA 
autor zdjęć do tak głośnych produkcji, jak choćby "Czułe słówka", "Werdykt", 
"Gatunek", czy "Adwokat diabła", zadebiutował tu jako reżyser filmu, 
któremu nadano rozgłos, zanim jeszcze trafił na ekrany.

[img]image[/img]
[img]image[/img]
[img]image[/img]
Obsada:
[color=red][i][b]Jet Li[/b][/i][/color].............. Han Sing 
Aaliyah............. Trish O'Day
Isaiah Washington... Mac
Dane techniczne:
Romeo Must Die (2000)-alE13.mkv
Format : Matroska
File size : 2.21 GiB
Duration : 1h 55mn
Overall bit rate : 2 748 Kbps
Movie name : Assault On Precinct 13 (2005)-alE13
Encoded date : UTC 2012-11-29 22:13:29
Writing application : mkvmerge v5.8.0 ('No Sleep / Pillow') built on Sep 2 2012 15:37:04
Writing library : libebml v1.2.3 + libmatroska v1.3.0
Video
ID : 1
Format : AVC
Format/Info : Advanced Video Codec
Format profile : Main@L4.0
Format settings, CABAC : Yes
Format settings, ReFrames : 2 frames
Muxing mode : Container profile=Unknown@4.0
Codec ID : V_MPEG4/ISO/AVC
Duration : 1h 55mn
Bit rate : 2 247 Kbps
Width : 1 920 pixels
Height : 1 080 pixels
Display aspect ratio : 16:9
Frame rate mode : Variable
Frame rate : 23.976 fps
Color space : YUV
Chroma subsampling : 4:2:0
Bit depth : 8 bits
Scan type : Progressive
Bits/(Pixel*Frame) : 0.045
Stream size : 1.75 GiB (79%)
Writing library : x264 core 112 r1834 a51816a
Audio
ID : 2
Format : AC-3
Format/Info : Audio Coding 3
Mode extension : CM (complete main)
Muxing mode : Header stripping
Codec ID : A_AC3
Duration : 1h 55mn
Bit rate mode : Constant
Bit rate : 512 Kbps
Channel(s) : 6 channels
Channel positions : Front: L C R, Side: L R, LFE
Sampling rate : 48.0 KHz
Bit depth : 16 bits
Stream size : 421 MiB (19%)
Text #1
ID : 3
Format : VobSub
Codec ID : S_VOBSUB
Codec ID/Info : The same subtitle format used on DVDs
Language : Polish
Text #2
ID : 4
Format : VobSub
Codec ID : S_VOBSUB
Codec ID/Info : The same subtitle format used on DVDs
Language : English[/center]
1.jpg 114.961 KB
80178e56f4f1c2146bc7e4dd32e0cfe4.png 470.634 KB
Nostalgie.jpg 144.162 KB
Gathering some info...

Register and log in Isohunt and see no captcha anymore!

4000 symbols left
Hash 00C156DC55C935A16E121FB3CE987BA9B03E5DA0

Related torrents for "Romeo Must Die (2000)[BDRip.x264-AC3][Eng]"

Torrent search:

english 2000 x264 bd