Search

Search (1972)

Action, Adventure

Full description

Chiko Chick Search 2013 OzQuant 1of3

Size 307.02 MB   0 seeders     Added 2012-12-01 10:41:12

Stream torrent
Starting‥ You need BitLord! Get it from 1BitLord.com
To download or stream you need BitLord. Visit them at BitLord.com
[size=200]Episode Info[/size]

http://www.chiko.com.au/chikochick/


[size=200]File Info[/size]
Format : MPEG-4
Format profile : Base Media / Version 2
Codec ID : mp42
File size : 293 MiB
Duration : 24mn 0s
Overall bit rate mode : Variable
Overall bit rate : 1 706 Kbps

[size=200]Video[/size]
ID : 1
Format : AVC
Format/Info : Advanced Video Codec
Format profile : Main@L3.0
Format settings, CABAC : Yes
Format settings, ReFrames : 4 frames
Codec ID : avc1
Codec ID/Info : Advanced Video Coding
Duration : 24mn 0s
Bit rate mode : Variable
Bit rate : 1 637 Kbps
Width : 528 pixels
Height : 416 pixels
Display aspect ratio : 16:9
Frame rate mode : Constant
Frame rate : 25.000 fps
Color space : YUV
Chroma subsampling : 4:2:0
Bit depth : 8 bits
Scan type : Progressive
Bits/(Pixel*Frame) : 0.298
Stream size : 281 MiB (96%)
Writing library : x264 core 112

[size=200]Audio[/size]
ID : 2
Format : AAC
Format/Info : Advanced Audio Codec
Format profile : LC
Codec ID : 40
Duration : 24mn 0s
Bit rate mode : Variable
Bit rate : 64.0 Kbps
Maximum bit rate : 82.7 Kbps
Channel(s) : 2 channels
Channel positions : Front: L R
Sampling rate : 32.0 KHz
Compression mode : Lossy
Stream size : 11.0 MiB (4%)
Chiko Chick Search 2013 OzQuant 1of3.mp4 307.02 MB
Gathering some info...

Register and log in Isohunt and see no captcha anymore!

4000 symbols left
Hash 611E0768B8532BEA2C1606C7A423D564897B7B6B

Related torrents for "Chiko Chick Search 2013 OzQuant 1of3"

Torrent search:

episode 01 2013