imdb
rating

7.8
Skyfall

Skyfall (2012)

Action, Adventure, Thriller

Full description

Skyfall (2012) BluRay Rip HD X720PHD TVBEST

Size 766.017 MB   0 seeders     Added 2012-12-01 15:37:06

Stream torrent
Starting‥ You need BitLord! Get it from BitLord.com
To download or stream you need BitLord. Visit them at BitLord.com
skyfall:


Screenshots:
-----------



IMDb:  http://www.imdb.com/title/tt1074638/
-------------------------------------------

--------------------------------------

Sample..................: Yes

Sample Size.............: 11.1 MiB
----------------------------------

Details:
-------

Video
ID                               : 0
Format                           : MPEG-4 Visual
Format profile                   : AdvancedSimple@L5
Format settings, BVOP            : Yes
Format settings, QPel            : No
Format settings, GMC             : No warppoints
Format settings, Matrix          : Custom
Codec ID                         : XVID
Codec ID/Hint                    : XviD
Duration                         : 2h 23mn
Bit rate                         : 1 631 Kbps
Width                            : 720 pixels
Height                           : 304 pixels
Display aspect ratio             : 2.35:1
Frame rate                       : 23.976 fps
Resolution                       : 24 bits
Colorimetry                      : 4:2:0
Scan type                        : Progressive
Bits/(Pixel*Frame)               : 0.311
Stream size                      : 546 MiB (99%)
Writing library                  : XviD 58

Audio
ID                               : 1
Format                           : AC-3
Format/Info                      : Audio Coding 3
Codec ID                         : 2000
Duration                         : 2h 23mn
Bit rate mode                    : Constant
Bit rate                         : 384 Kbps
Channel(s)                       : 6 channels
Channel positions                : Front: L C R, Surround: L R, LFE
Sampling rate                    : 48.0 KHz
Stream size                      : 293 MiB (19%)
Alignment                        : Aligned on interleaves
Interleave, duration             : 64 ms (1.54 video frames)
Interleave, preload duration     : 192 ms
-----------------------------------------

Plot:
----

Bonds loyalty to M is tested as her past comes back to haunt her. 
As MI6 comes under attack, 007 must track down and destroy the 
threat, no matter how personal the cost.-------------------------------------Torrent downloaded from http://thepiratebay.se
1.jpg 29.146 KB
2.jpg 26.101 KB
3.jpg 24.248 KB
Gathering some info...

Register and log in Isohunt and see no captcha anymore!

4000 symbols left
Hash 4A071ACFB2F12ACBB813F7DF126B781DDA06046C

Related torrents for "Skyfall (2012) BluRay Rip HD X720PHD TVBEST"

Torrent search:

hd 2012 bd