imdb
rating

8.5
The Dark Knight Rises

The Dark Knight Rises (2012)

Action, Crime, Drama, Thriller

Full description

The Dark Knight Rises (2012) BRRip 720p x264 [Dual Audio] [Hindi+English 5.1]~~IAmTheGame~~{TMRG}

Size 2.403 GB   0 seeders     Added 2012-12-02 01:20:37

Stream torrent
Starting‥ You need BitLord! Get it from BitLord.com
To download or stream you need BitLord. Visit them at BitLord.com
[img]image[/img]


[b][color=green][size=5] The Dark Knight Rises (2012) BRRip 720p x264 [Dual Audio] [Hindi+English 5.1]~~IAmTheGame~~{TMRG} [/size][/color][/b]


[img]image[/img]


[img]image[/img]


[img]image[/img]

[img]image[/img]

 [img]image[/img]

 [img]image[/img]

 [img]image[/img]

 [img]image[/img]

 [img]image[/img]

 [img]image[/img]

 [img]image[/img]

 [img]image[/img]

 [img]image[/img]
 
[img]image[/img]

[b][color=red]General[/color][/b]
[quote]
Complete name : The Dark Knight Rises (2012) BRRip 720p x264 [Dual Audio] [Hindi+English 5.1]~~IAmTheGame~~{TMRG}.mkv
Format : Matroska
File size : 2.23 GiB
Duration : 2h 44mn
Overall bit rate : 1 939 Kbps
Movie name : The Dark Knight Rises (2012) BRRip 720p x264 [Dual Audio] [Hindi+English 5.1]~~IAmTheGame~~{TMRG}
Encoded date : UTC 2012-12-01 14:15:39
 [/quote]

[b][color=red]Video [/color][/b] 
[quote]
ID : 1
Format : AVC
Format/Info : Advanced Video Codec
Muxing mode : Container profile=Unknown@4.1
Codec ID : V_MPEG4/ISO/AVC
Duration : 2h 44mn
Bit rate : 1 612 Kbps
Nominal bit rate : 1 650 Kbps
Width : 1 280 pixels
Height : 532 pixels
Display aspect ratio : 2.40:1
Frame rate : 23.976 fps
Stream size : 1.85 GiB (83%)
Title : The Dark Knight Rises (2012) BRRip 720p x264 [Dual Audio] [Hindi+English 5.1]~~IAmTheGame~~{TMRG}
Writing library : x264 core 125 
[/quote]

[b][color=red]Audio[/color][/b]
[quote]
Audio #1
ID : 2
Format : AC-3
Format/Info : Audio Coding 3
Codec ID : A_AC3
Duration : 2h 44mn
Bit rate mode : Constant
Bit rate : 128 Kbps
Channel(s) : 2 channels
Channel positions : Front: L R
Sampling rate : 44.1 KHz
Video delay : 2s 0ms
Stream size : 151 MiB (7%)
Title : ~~IAmTheGame~~{TMRG} 
Language : Hindi

Audio #2
ID : 3
Format : AC-3
Format/Info : Audio Coding 3
Codec ID : A_AC3
Duration : 2h 44mn
Bit rate mode : Constant
Bit rate : 160 Kbps
Channel(s) : 6 channels
Channel positions : Front: L C R, Side: L R, LFE
Sampling rate : 48.0 KHz
Stream size : 188 MiB (8%)
Title : ~~IAmTheGame~~{TMRG} 
[/quote]

[IMG]image[/IMG]
[IMG]image[/IMG]
[color=yellow][b]TORRENT MAFIA PAGE LINK[/b][/color] : [URL=http://www.facebook.com/TorrentMafiaReleaseGroup][color=green]Click Here To Visit Torrent Mafia Fan Page @ FACEBOOK.COM[/color][/URL]
[color=yellow][b]TORRENT MAFIA GROUP LINK[/b][/color] : [URL=http://www.facebook.com/groups/torrentmafia/][color=green]Click Here To Visit Torrent Mafia Group @ FACEBOOK.COM[/color][/URL]
[IMG]image[/IMG]
info.txt 7.804 KB
Sample.mkv 9.269 MB
Screen/1.jpg 56.649 KB
Gathering some info...

Register and log in Isohunt and see no captcha anymore!

4000 symbols left
Hash 490088CBCC48BB910142E906C7D1990F8C95C836

Related torrents for "The Dark Knight Rises (2012) BRRip 720p x264 [Dual Audio] [Hindi+English 5.1]~~IAmTheGame~~{TMRG}"

Torrent search:

english x264 hd hindi 2012 bd