Sthaniyo Sangbad 2010 DVDRip Bengali movie

Size 729.835 MB   1 seeders     Added 2012-12-02 03:01:05

Stream torrent
Starting‥ You need BitLord! Get it from BitLord.com
To download or stream you need BitLord. Visit them at BitLord.com

Cover:
 
image 
image

Release info:

General
Format                                   : Matroska
Format version                           : Version 2
File size                                : 696 MiB
Duration                                 : 1h 45mn
Overall bit rate                         : 920 Kbps
Movie name                               : Sthaniyo Sangbad 2010

Video
ID                                       : 1
Format                                   : MPEG-4 Visual
Format profile                           : Advanced Simple@L5
Format settings, BVOP                    : Yes
Format settings, QPel                    : No
Format settings, GMC                     : No warppoints
Format settings, Matrix                  : Default (H.263)
Codec ID                                 : V_MS/VFW/FOURCC / XVID
Codec ID/Hint                            : XviD
Duration                                 : 1h 45mn
Bit rate                                 : 806 Kbps
Width                                    : 640 pixels
Height                                   : 272 pixels
Display aspect ratio                     : 2.35:1
Frame rate mode                          : Constant
Frame rate                               : 25.000 fps
Color space                              : YUV
Chroma subsampling                       : 4:2:0
Bit depth                                : 8 bits
Scan type                                : Progressive
Compression mode                         : Lossy
Bits/(Pixel*Frame)                       : 0.185
Stream size                              : 610 MiB (88%)
Title                                    : Sthaniyo Sangbad 2010
Writing library                          : XviD 1.2.1 (UTC 2008-12-04)
Language                                 : Bengali
Default                                  : Yes
Forced                                   : No

Audio
ID                                       : 2
Format                                   : MPEG Audio
Format version                           : Version 1
Format profile                           : Layer 3
Mode                                     : Joint stereo
Mode extension                           : MS Stereo
Muxing mode                              : Header stripping
Codec ID                                 : A_MPEG/L3
Codec ID/Hint                            : MP3
Duration                                 : 1h 45mn
Bit rate mode                            : Constant
Bit rate                                 : 96.0 Kbps
Channel(s)                               : 2 channels
Sampling rate                            : 32.0 KHz
Compression mode                         : Lossy
Stream size                              : 72.6 MiB (10%)
Title                                    : Sthaniyo Sangbad 2010
Writing library                          : LAME3.99r
Encoding settings                        : -m j -V 4 -q 2 -lowpass 15.1 -b 96
Language                                 : Bengali
Default                                  : Yes
Forced                                   : No

Source:
credit to original movie ripper Deshi Digital Dhoom (Thanks)

Movie Info:

Director:
Arjun Gourisaria, Moinak Biswas
Producer:
Anand K Khetan, Arjun Gourisaria
Music:
Arindrajit Saha
Main Cast:
Anirban Dutta, Suman Mukherjee, Nayana Palit, Anindya Bandyopadhyay...  more
Genre:
Drama
Release:
Nov 26, 2010

Sthaniyo Sangbad synopsis :

Deshbandhu colony comprising of a settlement of refugees is situated on the southern fringes of Calcutta. Atin, the dreamy poet and Ananya's secret admirer, of the locality is worried in not finding her anywhere the next day. She is very important to him and he confesses this to Deepankarda, his friend, philosopher and guide in the locality. His home is facing demolition. The two people who stole AnanyaΓÇÖs plaid want to sell it to raise money for a computer course. They are desperate to pursue higher education - by any means. Five guys of the locality spend ... 


Screen Shot:
 
image 
image 
image 
image 
image 
image
		
Sthaniyo Sangbad 2010 DVDRip Bengali movie/Sthaniyo Sangbad 2010 DVDRip Bengali movie.mkv 729.835 MB
Sthaniyo Sangbad 2010 DVDRip Bengali movie/Torrent Downloaded From Digtorrent.org.txt 346 B
Sthaniyo Sangbad 2010 DVDRip Bengali movie/Torrent downloaded from souravfile torrents on BTScene.eu.txt 69 B
Gathering some info...

Register and log in Isohunt and see no captcha anymore!

4000 symbols left
Hash 999f376f81a92f57d4a6efc356bdba7012583767