imdb
rating

5.2
Thunderstruck

Thunderstruck (2012)

Comedy

Full description
quality   fullhd dvdrip dvdr x264 hd bd

Thunderstruck 2012 DVDRip English [SOURAVFILE]

Size 731.408 MB   3 seeders     Added 2012-12-02 04:20:46

Stream torrent
Starting‥ You need BitLord! Get it from BitLord.com
To download or stream you need BitLord. Visit them at BitLord.com
[img]image[/img]
[b]Cover:[/b]
[img]image[/img]
[b]Release info:[/b]
[code]General
Format : Matroska
Format version : Version 2
File size : 698 MiB
Duration : 1h 47mn
Overall bit rate : 908 Kbps
Video
ID : 1
Format : MPEG-4 Visual
Format profile : Advanced Simple@L5
Format settings, BVOP : Yes
Format settings, QPel : No
Format settings, GMC : No warppoints
Format settings, Matrix : Custom
Codec ID : V_MS/VFW/FOURCC / XVID
Codec ID/Hint : XviD
Duration : 1h 47mn
Bit rate : 762 Kbps
Width : 656 pixels
Height : 368 pixels
Display aspect ratio : 16:9
Frame rate mode : Constant
Frame rate : 23.976 fps
Color space : YUV
Chroma subsampling : 4:2:0
Bit depth : 8 bits
Scan type : Progressive
Compression mode : Lossy
Bits/(Pixel*Frame) : 0.132
Stream size : 585 MiB (84%)
Writing library : XviD 1.2.1 (UTC 2008-12-04)
Language : English
Default : Yes
Forced : No
Audio
ID : 2
Format : MPEG Audio
Format version : Version 1
Format profile : Layer 3
Mode : Joint stereo
Mode extension : MS Stereo
Muxing mode : Header stripping
Codec ID : A_MPEG/L3
Codec ID/Hint : MP3
Duration : 1h 47mn
Bit rate mode : Constant
Bit rate : 128 Kbps
Channel(s) : 2 channels
Sampling rate : 44.1 KHz
Compression mode : Lossy
Stream size : 98.3 MiB (14%)
Writing library : LAME3.98.2
Language : English
Default : Yes
Forced : No
Source:
credit to original movie ripper ViP3R (Thanks)[/code]
[b]IMDB Info:[/b]
[code]A basketball star switches talent with a klutzy 16-year-old fan.
Director: John Whitesell
Writers: Eric Champnella, Jeff Farley
Stars: Kevin Durant, Taylor Gray and James Belushi
Genres: Family[/code]
http://www.imdb.com/title/tt2041488/
[b]Screen Shot:[/b]
[img]image[/img]
[img]image[/img]
[img]image[/img]
[img]image[/img]
[img]image[/img]
[img]image[/img]
Thunderstruck 2012 DVDRip English [SOURAVFILE].mkv 731.408 MB
Torrent Downloaded From Digtorrent.org.txt 346 B
Torrent downloaded from souravfile torrents on BTScene.eu.txt 69 B
Gathering some info...

Register and log in Isohunt and see no captcha anymore!

4000 symbols left
Hash 865D3934F0637EFCB4413CE620CE049C3BAE7AA0

Related torrents for "Thunderstruck 2012 DVDRip English [SOURAVFILE]"

Torrent search:

dvdrip english 2012