imdb
rating

7.2
Chimpanzee

Chimpanzee (2012)

Documentary, Family

Full description
quality   dvdrip x264 hd bd fullhd dvdr dvd

Chimpanzee 2012 BRRiP XviD AC-3 avi

Size 589.632 MB   0 seeders     Added 2012-12-02 20:36:55

Stream torrent
Starting‥ You need BitLord! Get it from 1BitLord.com
To download or stream you need BitLord. Visit them at BitLord.com
Chimpanzee.2012.BRRiP.XviD.AC-3.avi



Format                                   : AVI
Format/Info                              : Audio Video Interleave
File size                                : 562 MiB
Duration                                 : 1h 18mn
Overall bit rate                         : 1 005 Kbps

Video
ID                                       : 0
Format                                   : MPEG-4 Visual
Format profile                           : Advanced Simple@L5
Format settings, BVOP                    : 4
Format settings, QPel                    : Yes
Format settings, GMC                     : No warppoints
Format settings, Matrix                  : Default (H.263)
Codec ID                                 : XVID
Codec ID/Hint                            : XviD
Duration                                 : 1h 18mn
Bit rate                                 : 869 Kbps
Width                                    : 864 pixels
Height                                   : 480 pixels
Display aspect ratio                     : 16:9
Frame rate                               : 23.976 fps
Color space                              : YUV
Chroma subsampling                       : 4:2:0
Bit depth                                : 8 bits
Scan type                                : Progressive
Compression mode                         : Lossy
Bits/(Pixel*Frame)                       : 0.087
Stream size                              : 486 MiB (86%)
Writing library                          : XviD 1.2.1 (UTC 2008-12-04)

Audio
ID                                       : 1
Format                                   : AC-3
Format/Info                              : Audio Coding 3
Mode extension                           : CM (complete main)
Format settings, Endianness              : Big
Codec ID                                 : 2000
Duration                                 : 1h 18mn
Bit rate mode                            : Constant
Bit rate                                 : 128 Kbps
Channel(s)                               : 6 channels
Channel positions                        : Front: L C R, Side: L R, LFE
Sampling rate                            : 48.0 KHz
Bit depth                                : 16 bits
Compression mode                         : Lossy
Stream size                              : 71.6 MiB (13%)
Alignment                                : Aligned on interleaves
Interleave, duration                     : 64 ms (1.53 video frames)
Interleave, preload duration             : 192 ms-------------------------------------Torrent downloaded from http://thepiratebay.se
Chimpanzee.2012.BRRiP.XviD.AC-3.avi 589.632 MB
Gathering some info...

Register and log in Isohunt and see no captcha anymore!

4000 symbols left
Hash 73EDE164B87FFEB7F0F6398F3A1E5095CF41B5FB

Related torrents for "Chimpanzee 2012 BRRiP XviD AC-3 avi"

Torrent search:

2012 bd