Search

Search (1972)

Action, Adventure

Full description

Chiko Chick Search 2013 OzQuant 3of3

Size 304.06 MB   0 seeders     Added 2012-12-03 09:21:04

Stream torrent
Starting‥ You need BitLord! Get it from BitLord.com
To download or stream you need BitLord. Visit them at BitLord.com
[size=200]Episode Info[/size]
http://www.chiko.com.au/chikochick/
[size=200]File Info[/size]
Format : MPEG-4
Format profile : Base Media / Version 2
Codec ID : mp42
File size : 290 MiB
Duration : 23mn 59s
Overall bit rate mode : Variable
Overall bit rate : 1 690 Kbps
[size=200]Video[/size]
ID : 1
Format : AVC
Format/Info : Advanced Video Codec
Format profile : Main@L3.0
Format settings, CABAC : Yes
Format settings, ReFrames : 4 frames
Codec ID : avc1
Codec ID/Info : Advanced Video Coding
Duration : 23mn 59s
Bit rate mode : Variable
Bit rate : 1 622 Kbps
Width : 528 pixels
Height : 416 pixels
Display aspect ratio : 16:9
Frame rate mode : Variable
Frame rate : 25.000 fps
Minimum frame rate : 8.333 fps
Maximum frame rate : 25.000 fps
Color space : YUV
Chroma subsampling : 4:2:0
Bit depth : 8 bits
Scan type : Progressive
Bits/(Pixel*Frame) : 0.295
Stream size : 278 MiB (96%)
Writing library : x264 core 112
[size=200]Audio[/size]
ID : 2
Format : AAC
Format/Info : Advanced Audio Codec
Format profile : LC
Codec ID : 40
Duration : 23mn 59s
Bit rate mode : Variable
Bit rate : 64.0 Kbps
Maximum bit rate : 86.0 Kbps
Channel(s) : 2 channels
Channel positions : Front: L R
Sampling rate : 32.0 KHz
Compression mode : Lossy
Stream size : 11.0 MiB (4%)
Chiko Chick Search 2013 OzQuant 3of3.mp4 304.06 MB
Gathering some info...

Register and log in Isohunt and see no captcha anymore!

4000 symbols left
Hash 722EDFD150EB9CCE9BA1DD04E09C41CDB5FB90BA

Related torrents for "Chiko Chick Search 2013 OzQuant 3of3"

Torrent search:

episode 03 2013