imdb
rating

6.1
Revenge

Revenge (1990)

Crime, Drama, Romance

Full description

Revenge S02E09 720p WEB-DL DD5 1 H264-KiNGS [PublicHD]

Size 1.498 GB   12 seeders     Added 2012-12-03 18:01:52

Stream torrent
Starting‥ You need BitLord! Get it from 1BitLord.com
To download or stream you need BitLord. Visit them at BitLord.com
PublicHD - High-Definition Bittorrent Community 

  https://publichd.eu 
 ----------------------------------------- 
Quote: Complete name : Revenge.S02E09.720p.WEB-DL.DD5.1.H.264-KiNGS.mkv
Format : Matroska
Format version : Version 2
File size : 1.40 GiB
Duration : 43mn 18s
Overall bit rate : 4 611 Kbps
Encoded date : UTC 2012-12-03 09:05:29
Writing application : mkvmerge v5.8.0 (No Sleep / Pillow) built on Sep 2 2012 15:37:04
Writing library : libebml v1.2.3 + libmatroska v1.3.0
Video
ID : 1
Format : AVC
Format/Info : Advanced Video Codec
Format profile : High@L3.1
Format settings, CABAC : No
Format settings, ReFrames : 2 frames
Codec ID : V_MPEG4/ISO/AVC
Duration : 43mn 18s
Bit rate : 4 136 Kbps
Width : 1 280 pixels
Height : 720 pixels
Display aspect ratio : 16:9
Frame rate mode : Constant
Frame rate : 23.976 fps
Color space : YUV
Chroma subsampling : 4:2:0
Bit depth : 8 bits
Scan type : Progressive
Bits/(Pixel*Frame) : 0.187
Stream size : 1.25 GiB (90%)
Language : English
Default : Yes
Forced : No
Color primaries : BT.709
Transfer characteristics : BT.709
Matrix coefficients : BT.709
Audio
ID : 2
Format : AC-3
Format/Info : Audio Coding 3
Mode extension : CM (complete main)
Format settings, Endianness : Big
Codec ID : A_AC3
Duration : 43mn 18s
Bit rate mode : Constant
Bit rate : 384 Kbps
Channel(s) : 6 channels
Channel positions : Front: L C R, Side: L R, LFE
Sampling rate : 48.0 KHz
Bit depth : 16 bits
Compression mode : Lossy
Stream size : 119 MiB (8%)
Language : English
Default : Yes
Forced : No
Text
ID : 3
Format : UTF-8
Codec ID : S_TEXT/UTF8
Codec ID/Info : UTF-8 Plain Text
Default : Yes
Forced : No		
Revenge.S02E09.720p.WEB-DL.DD5.1.H.264-KiNGS.mkv 1.498 GB
Revenge.S02E09.720p.WEB-DL.DD5.1.H.264-KiNGS.nfo 3.484 KB
Gathering some info...

Register and log in Isohunt and see no captcha anymore!

4000 symbols left
Hash B07B27A7AD86043012EBC4ACB1B77071F19BD72F

Related torrents for "Revenge S02E09 720p WEB-DL DD5 1 H264-KiNGS [PublicHD]"

Torrent search:

h264 hd web-dl