imdb
rating

6.8
Saints and Soldiers

Saints and Soldiers (2003)

Action, Adventure, Drama, History, War

Full description
quality   dvdrip hd bd x264 fullhd

Saints And Soldiers DVDRiP XViD-2 zip

Size 741.546 MB   0 seeders     Added 2012-12-04 02:08:56

Stream torrent
Starting‥ You need BitLord! Get it from BitLord.com
To download or stream you need BitLord. Visit them at BitLord.com
General                          :Saints And Soldiers DVDRiP XViD-2.avi\r\nFormat                           : AVI\r\nFormat/Info                      : Audio Video Interleave\r\nFile size                        : 700 MiB\r\nDuration                         : 1h 26mn\r\nOverall bit rate                 : 1 130 Kbps\r\nWriting application              : VirtualDubMod 1.5.4.1 (build \r\n2178/release)\r\nWriting library                  : VirtualDubMod build 2178/release\r\n\r\nVideo\r\nFormat                           : MPEG-4 Visual\r\nFormat profile                   : Streaming Video@L1\r\nFormat settings, BVOP            : Yes\r\nFormat settings, QPel            : No\r\nFormat settings, GMC             : No warppoints\r\nFormat settings, Matrix          : Custom\r\nCodec ID                         : XVID\r\nCodec ID/Hint                    : XviD\r\nDuration                         : 1h 26mn\r\nBit rate                         : 1 017 Kbps\r\nWidth                            : 480 pixels\r\nHeight                           : 272 pixels\r\nDisplay aspect ratio             : 16/9\r\nFrame rate                       : 25.000 fps\r\nResolution                       : 24 bits\r\nColorimetry                      : 4:2:0\r\nScan type                        : Progressive\r\nBits/(Pixel*Frame)               : 0.312\r\nStream size                      : 630 MiB (90%)\r\nWriting library                  : XviD 1.2.1 (UTC 2008-12-04)\r\n\r\nAudio\r\nFormat                           : MPEG Audio\r\nFormat version                   : Version 1\r\nFormat profile                   : Layer 3\r\nCodec ID                         : 55\r\nCodec ID/Hint                    : MP3\r\nDuration                         : 1h 26mn\r\nBit rate mode                    : Variable\r\nBit rate                         : 100 Kbps\r\nMinimum bit rate                 : 112 Kbps\r\nChannel(s)                       : 2 channels\r\nSampling rate                    : 44.1 KHz\r\nResolution                       : 16 bits\r\nStream size                      : 62.0 MiB (9%)\r\nAlignment                        : Aligned on interleaves\r\nInterleave, duration             : 26 ms (0.65 video frame)\r\nInterleave, preload duration     : 191 ms\r\nWriting library                  : LAME3.98r\r\nEncoding settings                : ABR\r\n
Saints And Soldiers DVDRiP XViD-2.zip 741.546 MB
Gathering some info...

Register and log in Isohunt and see no captcha anymore!

4000 symbols left
Hash 22dd9b8fd51a0d076db0fe3eabd99595c9028bcf

Related torrents for "Saints And Soldiers DVDRiP XViD-2 zip"

Torrent search:

dvdrip