Tosh.0 S04E30 HDTV.XviD-KWS

Size 181.065 MB   0 seeders     Added 2012-12-05 00:46:41

To download or stream you need BitLord. Visit them at BitLord.com
General
Complete name : Tosh.0 S04E30 HDTV.XviD-KWS

Format/Info : Audio Video Interleave
File size : 172 MiB
Duration : 24mn 12s
Overall bit rate mode : Variable
Overall bit rate : 1 164 Kbps
Writing application : transcode-1.1.5

Video
ID : 0
Format : MPEG-4 Visual
Format profile : Advanced Simple@L5
Format settings, BVOP : 2
Format settings, QPel : No
Format settings, GMC : No warppoints
Format settings, Matrix : Default (H.263)
Codec ID : XVID
Codec ID/Hint : XviD
Duration : 24mn 12s
Bit rate : 998 Kbps
Width : 624 pixels
Height : 352 pixels
Display aspect ratio : 16:9
Frame rate : 29.970 fps
Color space : YUV
Chroma subsampling : 4:2:0
Bit depth : 8 bits
Scan type : Progressive
Compression mode : Lossy
Bits/(Pixel*Frame) : 0.152
Stream size : 350 MiB (86%)
Writing library : XviD 64

Audio
ID : 1
Format : MPEG Audio
Format version : Version 1
Format profile : Layer 3
Mode : Joint stereo
Mode extension : MS Stereo
Codec ID : 55
Codec ID/Hint : MP3
Duration : 24mn 12s
Bit rate mode : Variable
Bit rate : 152 Kbps
Minimum bit rate : 32.0 Kbps
Channel(s) : 2 channels
Sampling rate : 48.0 KHz
Compression mode : Lossy
Stream size : 22.9 MiB (13%)
Alignment : Aligned on interleaves
Interleave, duration : 24 ms (0.72 video frame)
Writing library : LAME3.98r
Encoding settings : -m j -V 4 -q 0 -lowpass 17.5 --vbr-new -b 32
Tosh.0 S04E30 HDTV.XviD-KWS/Tosh.0 S04E30 HDTV.XviD-KWS/Tosh.0 S04E30 HDTV.XviD-KWS.rar 181.065 MB
Tosh.0 S04E30 HDTV.XviD-KWS/Tosh.0 S04E30 HDTV.XviD-KWS/www.Torrentday.com.txt.txt 672 B
Gathering some info...

Register and log in Isohunt and see no captcha anymore!

4000 symbols left
Hash f6ffb0dfc15f00ceba143d070f052a91259f8885