imdb
rating

6.2
Hideaways

Hideaways (2011)

Fantasy, Science Fiction

Full description
quality   dvdrip x264 hd bd fullhd telesync

Hideaways 2011 BDRip XVID AC3 HQ Hive-CM8

Size 1.518 GB   0 seeders     Added 2012-12-05 07:40:45

Stream torrent
Starting‥ You need BitLord! Get it from BitLord.com
To download or stream you need BitLord. Visit them at BitLord.com
Hideaways.2011.BDRip.XVID.AC3.HQ.Hive-CM8

Source: Bluray

Video.: 720x304 @bitrate 1700 2pass
Audio.: English DTS to AC3 5.1 @448
Sample: Yes, included

 
http://www.imdb.com/title/tt1692098/


General
Complete name                  : Hideaways.2011.BDRip.XVID.AC3.HQ.Hive-CM8.avi
Format                         : AVI
Format/Info                    : Audio Video Interleave
File size                      : 1.40 GiB
Duration                       : 1h 32mn
Overall bit rate               : 2 157 Kbps
Writing application            : Nandub v1.0rc2
Writing library                : Nandub build 1853/release

Video
ID                             : 0
Format                         : MPEG-4 Visual
Format profile                 : Advanced Simple@L5
Format settings, BVOP          : 1
Format settings, QPel          : Yes
Format settings, GMC           : No warppoints
Format settings, Matrix        : Default (H.263)
Muxing mode                    : Packed bitstream
Codec ID                       : XVID
Codec ID/Hint                  : XviD
Duration                       : 1h 32mn
Bit rate                       : 1 700 Kbps
Width                          : 720 pixels
Height                         : 304 pixels
Display aspect ratio           : 2.35:1
Frame rate                     : 23.976 fps
Color space                    : YUV
Chroma subsampling             : 4:2:0
Bit depth                      : 8 bits
Scan type                      : Progressive
Compression mode               : Lossy
Bits/(Pixel*Frame)             : 0.324
Stream size                    : 1.10 GiB (79%)
Writing library                : XviD 1.2.1 (UTC 2008-12-04)

Audio
ID                             : 1
Format                         : AC-3
Format/Info                    : Audio Coding 3
Mode extension                 : CM (complete main)
Format settings, Endianness    : Big
Codec ID                       : 2000
Duration                       : 1h 32mn
Bit rate mode                  : Constant
Bit rate                       : 448 Kbps
Channel(s)                     : 6 channels
Channel positions              : Front: L C R, Side: L R, LFE
Sampling rate                  : 48.0 KHz
Bit depth                      : 16 bits
Compression mode               : Lossy
Stream size                    : 297 MiB (21%)
Alignment                      : Split accross interleaves
Interleave, duration           : 42 ms (1.00 video frame)
Interleave, preload duration   : 500 ms


PLOT
James Furlong is the last in a long line of Furlongs who were each blessed or cursed with a strange ability. James is eventually isolated in a forest to avoid hurting his family and decides to live there. A few years later, a girl named Mae, takes refuge in the same forest because of an incurable disease.

CAST
Harry Treadaway          ...     James Furlong
Rachel Hurd-Wood         ...     Mae-West O'Mara
Thomas Brodie-Sangster   ...     Liam
 
image
 
image
 
image
 
image



GREETZ
ViSiON,SPK,SceneLovers,PRESTiGE,SANTi,3LT0N,YanKeeS,COPYxRIGHT,THC,T0XiC
D2U,LKRG,ADTRG,Feel-Free,KoDeKinG,FLAWL3SS,WBZ,BHRG,26K,NOVA,MAGNET
Unevano,BigVik,Rapeseed,SAFC,goldadvance,KaN1vE,Pinnz,Wayne,TED
SeeN,jtr,Limey,ICONiK,4PlayHD,THEDEN-RG,eXceSs,AKS74u,HiGH
Mr Hive,and most P2P groups
Great Work Guys!

LOOKING FOR ANYTHING YOU WANT TO LOOK AND SOUND BETTER

CM8@hushmail.com
Hideaways.2011.BDRip.XVID.AC3.HQ.Hive-CM8.avi 1.5 GB
Hideaways.2011.BDRip.XVID.AC3.HQ.Hive-CM8.nfo 4.318 KB
sample.avi 18.76 MB
Gathering some info...

Register and log in Isohunt and see no captcha anymore!

4000 symbols left
Hash 5E58296814AEBBFFA34D3FF0A11F5753A3A56C46

Related torrents for "Hideaways 2011 BDRip XVID AC3 HQ Hive-CM8"

Torrent search:

bd 2011