imdb
rating

6.7
Nitro Circus: The Movie

Nitro Circus: The Movie (2012)

Action, Comedy

Full description
quality   dvdrip bd x264 hd hdtv

Nitro Circus The Movie 3D (2012)[BDRip.x264-AC3/SBS][Eng]

Size 2.253 GB   12 seeders     Added 2012-12-05 23:40:26

Stream torrent
Starting‥ You need BitLord! Get it from BitLord.com
10
To download or stream you need BitLord. Visit them at BitLord.com
[center][img]image[/img]

Film 3D w wersji SBS

Produkcja: USA
Data: 2012
Reżyseria: Gregg Godfrey, Jeremy Rawle
Gatunek: Akcja,Komedia
Czas: 01:31:48 
 
Opis:

Travis Pastrana and his tight-knit, highly-skilled, 
adrenaline-addicted friends bring their impossible, 
ridiculous, insane and hysterical adventures to the 
big screen for the first time.

Film jest oparty na skomplikowanych trikach kaskaderskich, 
wykonywanych w komediowy sposób, przez sportowców z całego 
świata. Travis Pastrana i jego przyjaciele po raz pierwszy 
pokazali na dużym ekranie to co jest niemożliwe, szalone 
kaskaderskie sztuczki i lekkomyślność.

[img]image[/img]
[img]image[/img]
[img]image[/img]

Obsada:

Jolene Van Vugt ... 	Herself
Travis Pastrana ... 	Himself
Gregg Godfrey 	... 	Himself
Jeremy Rawle 	... 	Himself 

Dane techniczne:

Nitro Circus The Movie 3D (2012)-alE13.mkv
Format : Matroska
File size : 2.10 GiB
Duration : 1h 31mn
Overall bit rate : 3 271 Kbps
Movie name : Nitro Circus The Movie 3D (2012)-alE13
Writing application : Lavf52.94.0
Writing library : Lavf52.94.0

Video
ID : 1
Format : AVC
Format/Info : Advanced Video Codec
Format profile : Main@L4.0
Format settings, CABAC : Yes
Format settings, ReFrames : 2 frames
Muxing mode : Container profile=Unknown@4.0
Codec ID : V_MPEG4/ISO/AVC
Duration : 1h 31mn
Bit rate : 2 566 Kbps
Nominal bit rate : 2 704 Kbps
Width : 1 920 pixels
Height : 1 080 pixels
Display aspect ratio : 16:9
Frame rate mode : Variable
Frame rate : 24.000 fps
Color space : YUV
Chroma subsampling : 4:2:0
Bit depth : 8 bits
Scan type : Progressive
Bits/(Pixel*Frame) : 0.052
Stream size : 1.65 GiB (78%)
Writing library : x264 core 112 r1834 a51816a
Language : English

Audio
ID : 2
Format : AC-3
Format/Info : Audio Coding 3
Mode extension : CM (complete main)
Codec ID : A_AC3
Duration : 1h 31mn
Bit rate mode : Constant
Bit rate : 640 Kbps
Channel(s) : 6 channels
Channel positions : Front: L C R, Side: L R, LFE
Sampling rate : 48.0 KHz
Bit depth : 16 bits
Stream size : 420 MiB (20%)
Language : English[/center]
1.jpg 101.4 KB
2.jpg 120.099 KB
3.JPG 243.187 KB
Gathering some info...

Register and log in Isohunt and see no captcha anymore!

4000 symbols left
Hash 5B7AC70A59FEA93FCC8BFE85B834246732AF204A

Related torrents for "Nitro Circus The Movie 3D (2012)[BDRip.x264-AC3/SBS][Eng]"

Torrent search:

english x264 2012 bd