Jock the Hero Dog 2011 DVDRip English [Accipiter]

Size 727.539 MB   0 seeders     Added 2012-12-06 03:42:20

Stream torrent
Starting‥ You need BitLord! Get it from 1BitLord.com
To download or stream you need BitLord. Visit them at BitLord.com
Release info:

General
Format                                   : Matroska
Format version                           : Version 2
File size                                : 694 MiB
Duration                                 : 1h 19mn
Overall bit rate mode                    : Variable
Overall bit rate                         : 1 217 Kbps

Video
ID                                       : 1
Format                                   : MPEG-4 Visual
Format profile                           : Advanced Simple@L5
Format settings, BVOP                    : Yes
Format settings, QPel                    : No
Format settings, GMC                     : No warppoints
Format settings, Matrix                  : Custom
Codec ID                                 : V_MS/VFW/FOURCC / XVID
Codec ID/Hint                            : XviD
Duration                                 : 1h 19mn
Bit rate                                 : 1 083 Kbps
Width                                    : 640 pixels
Height                                   : 352 pixels
Display aspect ratio                     : 16:9
Frame rate mode                          : Constant
Frame rate                               : 25.000 fps
Color space                              : YUV
Chroma subsampling                       : 4:2:0
Bit depth                                : 8 bits
Scan type                                : Progressive
Compression mode                         : Lossy
Bits/(Pixel*Frame)                       : 0.192
Stream size                              : 617 MiB (89%)
Language                                 : English
Default                                  : Yes
Forced                                   : No

Audio
ID                                       : 2
Format                                   : MPEG Audio
Format version                           : Version 1
Format profile                           : Layer 3
Mode                                     : Joint stereo
Mode extension                           : MS Stereo
Muxing mode                              : Header stripping
Codec ID                                 : A_MPEG/L3
Codec ID/Hint                            : MP3
Duration                                 : 1h 19mn
Bit rate mode                            : Variable
Bit rate                                 : 110 Kbps
Nominal bit rate                         : 128 Kbps
Channel(s)                               : 2 channels
Sampling rate                            : 48.0 KHz
Compression mode                         : Lossy
Stream size                              : 62.7 MiB (9%)
Language                                 : English
Default                                  : Yes
Forced                                   : No

Source:
credit to original movie ripper ViP3R (Thanks)

IMDB Info:

Animated-family adventure that tells the heart-warming, coming-of-age story of a man and his best-friend, a lovable and fearless dog named, Jock.

Director: Duncan MacNeillie
Writers: Jim Cox (additional writer), Duncan MacNeillie (screenplay), 
Stars: Bryan Adams, Donald Sutherland and Helen Hunt 

Genres: Animation | Adventure | Comedy | Family
 -------------------------------------Torrent downloaded from http://thepiratebay.se
Jock the Hero Dog 2011 DVDRip English [Accipiter].mkv 727.539 MB
Torrent Downloaded From Digtorrent.org.txt 346 B
Torrent downloaded from souravfile torrents on BTScene.eu.txt 69 B
Gathering some info...

Register and log in Isohunt and see no captcha anymore!

4000 symbols left
Hash 2A04F51D07EFF101554EE7C20490168F317CA95E

Related torrents for "Jock the Hero Dog 2011 DVDRip English [Accipiter]"

Torrent search:

dvdrip english 2011