imdb
rating

7.2
Pitch Perfect

Pitch Perfect (2012)

Comedy, Music, Romance

Full description
quality   cam dvdrip dvd telesync x264

Pitch Perfect 2012 DVDRip English [Accipiter]

Size 727.59 MB   23 seeders     Added 2012-12-06 03:40:49

Stream torrent
Starting‥ You need BitLord! Get it from 1BitLord.com
To download or stream you need BitLord. Visit them at BitLord.com
[img]image[/img]

[b]Cover:[/b]

[img]image[/img]

[b]Release info:[/b]

[code]General
Format : Matroska
Format version : Version 2
File size : 694 MiB
Duration : 1h 52mn
Overall bit rate : 960 Kbps


Video
ID : 1
Format : MPEG-4 Visual
Format profile : Advanced Simple@L5
Format settings, BVOP : Yes
Format settings, QPel : No
Format settings, GMC : No warppoints
Format settings, Matrix : Custom
Codec ID : V_MS/VFW/FOURCC / XVID
Codec ID/Hint : XviD
Duration : 1h 52mn
Bit rate : 740 Kbps
Width : 672 pixels
Height : 360 pixels
Display aspect ratio : 1.85:1
Frame rate mode : Constant
Frame rate : 23.976 fps
Color space : YUV
Chroma subsampling : 4:2:0
Bit depth : 8 bits
Scan type : Progressive
Compression mode : Lossy
Bits/(Pixel*Frame) : 0.121
Stream size : 577 MiB (83%)
Language : English
Default : Yes
Forced : No

Audio
ID : 2
Format : AC-3
Format/Info : Audio Coding 3
Mode extension : CM (complete main)
Format settings, Endianness : Big
Muxing mode : Header stripping
Codec ID : A_AC3
Duration : 1h 52mn
Bit rate mode : Constant
Bit rate : 112 Kbps
Sampling rate : 44.1 KHz
Bit depth : 16 bits
Compression mode : Lossy
Stream size : 103 MiB (15%)
Language : English
Default : Yes
Forced : No



Source:
credit to original movie ripper SPARKS (Thanks)[/code]

[b]IMDB Info:[/b]

[code]Beca, a freshman at Barden University, is cajoled into joining The Bellas, her school's all-girls singing group. Injecting some much needed energy into their repertoire, The Bellas take on their male rivals in a campus competition.

Director: Jason Moore
Writers: Kay Cannon (screenplay), Mickey Rapkin (book)
Stars: Anna Kendrick, Brittany Snow and Rebel Wilson

Genres: Comedy | Music | Romance[/code]

http://www.imdb.com/title/tt1981677/

[b]Screen Shot:[/b]

[img]image[/img]
[img]image[/img]
[img]image[/img]
[img]image[/img]
[img]image[/img]
[img]image[/img]
[img]image[/img]
Pitch Perfect 2012 DVDRip English [Accipiter]/Pitch Perfect 2012 DVDRip English [Accipiter].mkv 727.589 MB
Pitch Perfect 2012 DVDRip English [Accipiter]/Torrent Downloaded From Digtorrent.org.txt 346 B
Pitch Perfect 2012 DVDRip English [Accipiter]/Torrent downloaded from souravfile torrents on BTScene.eu.txt 69 B
Gathering some info...

Register and log in Isohunt and see no captcha anymore!

4000 symbols left
Hash 9c45ee9bae13beff7408b1556fccae65cea17e29

Related torrents for "Pitch Perfect 2012 DVDRip English [Accipiter]"

Torrent search:

dvdrip english 2012