Столичани в повече S04E12 WEBRip XviD-API avi

Size 525.141 MB   0 seeders     Added 2012-12-06 05:37:42

Stream torrent
Starting‥ You need BitLord! Get it from 1BitLord.com
To download or stream you need BitLord. Visit them at BitLord.com
HQ WEBrip

Format                                   : AVI
Format/Info                              : Audio Video Interleave
File size                                : 501 MiB
Duration                                 : 46mn 36s
Overall bit rate                         : 1 502 Kbps
Writing application                      : Lavf52.84.0

Video
ID                                       : 0
Format                                   : xvid
Codec ID                                 : xvid
Duration                                 : 46mn 36s
Bit rate                                 : 1 363 Kbps
Width                                    : 720 pixels
Height                                   : 400 pixels
Display aspect ratio                     : 16:9
Frame rate                               : 25.000 fps
Bits/(Pixel*Frame)                       : 0.189
Stream size                              : 454 MiB (91%)

Audio
ID                                       : 1
Format                                   : AC-3
Format/Info                              : Audio Coding 3
Mode extension                           : CM (complete main)
Format settings, Endianness              : Big
Codec ID                                 : 2000
Duration                                 : 46mn 36s
Bit rate mode                            : Constant
Bit rate                                 : 128 Kbps
Channel(s)                               : 2 channels
Channel positions                        : Front: L R
Sampling rate                            : 48.0 KHz
Bit depth                                : 16 bits
Compression mode                         : Lossy
Stream size                              : 42.7 MiB (9%)
Alignment                                : Aligned on interleaves
Interleave, duration                     : 32 ms (0.80 video frame)-------------------------------------Torrent downloaded from http://thepiratebay.se
Столичани в повече S04E12.WEBRip.XviD-API.avi 525.141 MB
Gathering some info...

Register and log in Isohunt and see no captcha anymore!

4000 symbols left
Hash BF80C251098487B61EAD10712F8293FB820CACB3

Related torrents for "Столичани в повече S04E12 WEBRip XviD-API avi"

Torrent search:

season 04 episode 12 web-rip