Attack of the Show 2012 12 05 x264 OzQuant

Size 311.024 MB   3 seeders     Added 2012-12-06 14:42:35

Stream torrent
Starting‥ You need BitLord! Get it from BitLord.com
To download or stream you need BitLord. Visit them at BitLord.com
[size=200]Episode Info[/size]
Tonight on Attack of the Show with Michael Kosta and Candace Bailey, T.J. Miller visits the studio from Comedy Central's Mash Up, we review the Sony Internet Player with Google TV and more!

[size=200]File Info[/size]
Format : MPEG-4
Format profile : Base Media / Version 2
Codec ID : mp42
File size : 297 MiB
Duration : 43mn 42s
Overall bit rate mode : Variable
Overall bit rate : 949 Kbps

[size=200]Video[/size]
ID : 1
Format : AVC
Format/Info : Advanced Video Codec
Format profile : Main@L3.0
Format settings, CABAC : Yes
Format settings, ReFrames : 4 frames
Codec ID : avc1
Codec ID/Info : Advanced Video Coding
Duration : 43mn 42s
Bit rate mode : Variable
Bit rate : 881 Kbps
Width : 528 pixels
Height : 416 pixels
Display aspect ratio : 16:9
Frame rate mode : Variable
Frame rate : 25.000 fps
Minimum frame rate : 12.500 fps
Maximum frame rate : 25.000 fps
Color space : YUV
Chroma subsampling : 4:2:0
Bit depth : 8 bits
Scan type : Progressive
Bits/(Pixel*Frame) : 0.160
Stream size : 275 MiB (93%)
Writing library : x264 core 112

[size=200]Audio[/size]
ID : 2
Format : AAC
Format/Info : Advanced Audio Codec
Format profile : LC
Codec ID : 40
Duration : 43mn 42s
Bit rate mode : Variable
Bit rate : 64.0 Kbps
Maximum bit rate : 84.7 Kbps
Channel(s) : 2 channels
Channel positions : Front: L R
Sampling rate : 32.0 KHz
Compression mode : Lossy
Stream size : 20.0 MiB (7%)
Attack.of.the.Show.2012.12.05.x264.OzQuant.mp4 311.024 MB
Gathering some info...

Register and log in Isohunt and see no captcha anymore!

4000 symbols left
Hash A5EDB4D1A0F83AFD9B6E5A51F4687BB91048001F

Related torrents for "Attack of the Show 2012 12 05 x264 OzQuant"

Torrent search:

x264 2012