imdb
rating

7.0
The Boys From Brazil

The Boys From Brazil (1978)

Drama, Science Fiction, Thriller, Foreign

Full description
quality   dvdrip x264 hd bd h264 fullhd

Boys from Brazil (1978)[BDRip.x264-AC3][Napisy PL][Eng]

Size 2.186 GB   0 seeders     Added 2012-12-06 15:00:43

Stream torrent
Starting‥ You need BitLord! Get it from BitLord.com
To download or stream you need BitLord. Visit them at BitLord.com
[center][img]image[/img]

produkcja: USA, Wielka Brytania
gatunek: Thriller, Sci-Fi
data premiery: 1978-10-05 (Świat)
reżyseria Franklin J. Schaffner
scenariusz Heywood Gould
zdjęcia Henri Decaë
muzyka Jerry Goldsmith
czas trwania: 123 min.

Opis:

A Nazi hunter in Paraguay discovers a sinister and bizarre plot to 
rekindle the Third Reich. 

Profesor i młody żydowski chłopak zwracają uwagę na serię zagadkowych 
śmierci mężczyzn w średnim wieku. Mieszkają w różnych miejscach na ziemi. 
Wszyscy są urzędnikami państwowymi i mają kilkunastoletnich synów, 
którzy okazują się być identyczni. Profesor i chłopak odkrywają, że to 
sprawka doktora Mengele'a.

[img]image[/img]
[img]image[/img]
[img]image[/img]
[img]image[/img]

Obsada:

[color=red]Gregory Peck[/color] Doktor Josef Mengele
[color=red]Laurence Olivier[/color] Ezra Lieberman
[color=red]James Mason[/color] Eduard Seibert
Bruno Ganz Profesor Bruckner

Dane Techniczne:

The Boys from Brazil (1978)-alE13.mkv
Format : Matroska
File size : 2.03 GiB
Duration : 2h 4mn
Overall bit rate : 2 331 Kbps
Movie name : The Boys from Brazil (1978)-alE13
Encoded date : UTC 2012-12-06 06:53:01
Writing application : mkvmerge v5.8.0 
Writing library : libebml v1.2.3 + libmatroska v1.3.0

Video
ID : 1
Format : AVC
Format/Info : Advanced Video Codec
Format profile : Main@L3.1
Format settings, CABAC : Yes
Format settings, ReFrames : 2 frames
Muxing mode : Container profile=Unknown@3.1
Codec ID : V_MPEG4/ISO/AVC
Duration : 2h 4mn
Bit rate : 2 118 Kbps
Width : 1 280 pixels
Height : 720 pixels
Display aspect ratio : 16:9
Frame rate mode : Variable
Frame rate : 24.000 fps
Color space : YUV
Chroma subsampling : 4:2:0
Bit depth : 8 bits
Scan type : Progressive
Bits/(Pixel*Frame) : 0.096
Stream size : 1.80 GiB (88%)
Writing library : x264 core 112 r1834 a51816a

Audio
ID : 2
Format : AC-3
Format/Info : Audio Coding 3
Mode extension : CM (complete main)
Muxing mode : Header stripping
Codec ID : A_AC3
Duration : 2h 4mn
Bit rate mode : Constant
Bit rate : 224 Kbps
Channel(s) : 2 channels
Channel positions : Front: L R
Sampling rate : 48.0 KHz
Bit depth : 16 bits
Stream size : 200 MiB (10%)[/center]
4857c5dd46bc6a0a913ce4427805faa3.png 652.244 KB
Nostalgie.jpg 144.162 KB
sub/The Boys From Brazil (1978)-alE13.srt 92.15 KB
Gathering some info...

Register and log in Isohunt and see no captcha anymore!

4000 symbols left
Hash C21497704921CB415416156FFABB7F4DE1CB37D4

Related torrents for "Boys from Brazil (1978)[BDRip.x264-AC3][Napisy PL][Eng]"

Torrent search:

english 1978 x264 bd