Taped 2012 DVDrip Dutch English Klam

Size 1.695 GB   2 seeders     Added 2012-12-06 20:53:39

Stream torrent
Starting‥ You need BitLord! Get it from BitLord.com
To download or stream you need BitLord. Visit them at BitLord.com
With: Barry Atsma, Susan Visser and Darío Levy

In Taped doen Johan (Barry Atsma) en Saar (Susan Visser) een laatste poging om hun huwelijk te redden door samen op vakantie te gaan naar Buenos Aires. Als belofte aan hun dochter registreren ze hun activiteiten met een videocamera. Wanneer ze echter per ongeluk een gruwelijke moord vastleggen, moeten ze vluchten om in leven te blijven.

With English subs (srt)
The story begins as a common couple crisis. Infidelity, recriminations, plans to overcome the crisis. But suddenly the run into lot of unexpected troubles..... I strongly recommend watching this movie. You will enjoy it.
 
http://www.imdb.com/title/tt1735900	

------------------------ Dutch Friends ------------------------
---------------------------------------------------------------
- Bezoek ook eens mijn vrienden op:  http://www.Film-Test.nl --
----- voor mijn Nederlandse Sync. ondertitels ---- en meer ----
------- http://www.Film-Test.nl ---- Over Films en meer -------
---------------------------------------------------------------

General:

Complete name                    : TapedTaped.avi
Format                           : AVI
Format/Info                      : Audio Video Interleave
File size                        : 1.58 GiB
Duration                         : 1h 20mn
Overall bit rate                 : 2 796 Kbps

Video:

Format                           : MPEG-4 Visual
Format profile                   : Simple@L3
Format settings, BVOP            : No
Format settings, QPel            : No
Format settings, GMC             : No warppoints
Format settings, Matrix          : Default (H.263)
Codec ID                         : XVID
Codec ID/Hint                    : XviD
Duration                         : 1h 20mn
Bit rate                         : 2 337 Kbps
Width                            : 720 pixels
Height                           : 304 pixels
Display aspect ratio             : 2.35:1
Frame rate                       : 25.000 fps
Color space                      : YUV
Chroma subsampling               : 4:2:0
Bit depth                        : 8 bits
Scan type                        : Progressive
Compression mode                 : Lossy
Bits/(Pixel*Frame)               : 0.427
Stream size                      : 1.32 GiB (84%)
Writing library                  : XviD 1.1.2 (UTC 2006-11-01)

Audio:

Format                           : AC-3
Format/Info                      : Audio Coding 3
Mode extension                   : CM (complete main)
Codec ID                         : 2000
Duration                         : 1h 20mn
Bit rate mode                    : Constant
Bit rate                         : 448 Kbps
Channel(s)                       : 6 channels
Channel positions                : Front: L C R, Side: L R, LFE
Sampling rate                    : 48.0 KHz
Bit depth                        : 16 bits
Compression mode                 : Lossy
Stream size                      : 259 MiB (16%)
Alignment                        : Aligned on interleaves
Interleave, duration             : 32 ms (0.80 video frame)
Interleave, preload duration     : 320 ms		
Cover/www.Film-Test.nl.JPG 34.175 KB
New Dutch Site.txt 117 B
Subs/Taped.eng.srt 26.695 KB
Gathering some info...

Register and log in Isohunt and see no captcha anymore!

4000 symbols left
Hash 867068912694F35AC446D058422C8632CA899D70