imdb
rating

7.0
I m 24

I m 24 (2012)

Full description
quality   dvdrip x264 hd

I AM 24 (2012) - DVDRip - XviD - 2CDRip - [DDR]

Size 1.585 GB   4 seeders     Added 2012-12-06 22:41:00

Stream torrent
Starting‥ You need BitLord! Get it from BitLord.com
To download or stream you need BitLord. Visit them at BitLord.com
General

Complete name                            : C:UsersAdministratorDownloadsI AM 24 (2012) - DVDRip - XviD - 2CDRip - [DDR]I AM 24 (2012) - DVDRip - XviD - 2CDRip - [DDR].avi
Format                                   : AVI
Format/Info                              : Audio Video Interleave
File size                                : 1.46 GiB
Duration                                 : 1h 54mn
Overall bit rate                         : 1 829 Kbps
Writing application                      : VirtualDubMod 1.5.10.2 (build 2540/release)
Writing library                          : VirtualDubMod build 2540/release

Video
ID                                       : 0
Format                                   : MPEG-4 Visual
Format profile                           : Advanced Simple@L5
Format settings, BVOP                    : 3
Format settings, QPel                    : No
Format settings, GMC                     : No warppoints
Format settings, Matrix                  : Custom
Codec ID                                 : XVID
Codec ID/Hint                            : XviD
Duration                                 : 1h 54mn
Bit rate                                 : 1 372 Kbps
Width                                    : 720 pixels
Height                                   : 304 pixels
Display aspect ratio                     : 2.35:1
Frame rate                               : 23.976 fps
Color space                              : YUV
Chroma subsampling                       : 4:2:0
Bit depth                                : 8 bits
Scan type                                : Progressive
Compression mode                         : Lossy
Bits/(Pixel*Frame)                       : 0.261
Stream size                              : 1.09 GiB (75%)
Writing library                          : XviD 1.2.1 (UTC 2008-12-04)

Audio
ID                                       : 1
Format                                   : AC-3
Format/Info                              : Audio Coding 3
Mode extension                           : CM (complete main)
Format settings, Endianness              : Big
Codec ID                                 : 2000
Duration                                 : 1h 54mn
Bit rate mode                            : Constant
Bit rate                                 : 448 Kbps
Channel(s)                               : 6 channels
Channel positions                        : Front: L C R, Side: L R, LFE
Sampling rate                            : 48.0 KHz
Bit depth                                : 16 bits
Compression mode                         : Lossy
Stream size                              : 366 MiB (24%)
Alignment                                : Split accross interleaves
Interleave, duration                     : 42 ms (1.00 video frame)
Interleave, preload duration             : 500 ms-------------------------------------Torrent downloaded from http://thepiratebay.se
Arabic Subs/Arabic Subs - DDR.idx 85.516 KB
Arabic Subs/Arabic Subs - DDR.sub 4.018 MB
I AM 24 (2012) - DVDRip - XviD - 2CDRip - [DDR].avi 1.568 GB
Gathering some info...

Register and log in Isohunt and see no captcha anymore!

4000 symbols left
Hash 1119034C7185BFF1CB773A29DFBC5B9253ED97A6

Related torrents for "I AM 24 (2012) - DVDRip - XviD - 2CDRip - [DDR]"

Torrent search:

dvdrip 2012