imdb
rating

7.9
Mr. Krueger's Christmas

Mr. Krueger's Christmas (1980)

Drama, Family

Full description
quality   dvdrip x264

Mr. Krueger's Christmas / DVDrip [x264-AC3/6CH-MP4]

Size 360.009 MB   0 seeders     Added 2012-12-07 02:53:48

Stream torrent
Starting‥ You need BitLord! Get it from BitLord.com
To download or stream you need BitLord. Visit them at BitLord.com
An elderly widower relies on his daydreams and faith to get through a lonely Christmas.

Stars: James Stewart, Beverly Rowland and Kamee Aliessa
 

Video
ID                                       : 1
Format                                   : AVC
Format/Info                              : Advanced Video Codec
Format profile                           : Main@L3.0
Format settings, CABAC                   : Yes
Format settings, ReFrames                : 4 frames
Codec ID                                 : avc1
Codec ID/Info                            : Advanced Video Coding
Duration                                 : 25mn 32s
Bit rate mode                            : Variable
Bit rate                                 : 1 428 Kbps
Width                                    : 720 pixels
Height                                   : 480 pixels
Display aspect ratio                     : 4:3
Original display aspect ratio            : 4:3
Frame rate mode                          : Constant
Frame rate                               : 29.970 fps
Standard                                 : NTSC
Color space                              : YUV
Chroma subsampling                       : 4:2:0
Bit depth                                : 8 bits
Scan type                                : Progressive
Bits/(Pixel*Frame)                       : 0.138
Stream size                              : 261 MiB (76%)
Writing library                          : x264 core 120

Audio
ID                                       : 2
Format                                   : AC-3
Format/Info                              : Audio Coding 3
Mode extension                           : CM (complete main)
Format settings, Endianness              : Big
Codec ID                                 : ac-3
Duration                                 : 25mn 32s
Bit rate mode                            : Constant
Bit rate                                 : 448 Kbps
Channel(s)                               : 6 channels
Channel positions                        : Front: L C R, Side: L R, LFE
Sampling rate                            : 48.0 KHz
Bit depth                                : 16 bits
Compression mode                         : Lossy
Delay relative to video                  : 67ms
Stream size                              : 81.9 MiB (24%)
Language                                 : English
Encoded date                             : UTC 2012-12-05 04:22:48
Tagged date                              : UTC 2012-12-05 04:44:30		
Mr. Krueger's Christmas (1980).mp4 360.009 MB
Gathering some info...

Register and log in Isohunt and see no captcha anymore!

4000 symbols left
Hash 5B2FB1EE4F43BED59DB0BC9B0AD9AE479307C5A9

Related torrents for "Mr. Krueger's Christmas / DVDrip [x264-AC3/6CH-MP4]"

Torrent search:

dvdrip 1980 x264