imdb
rating

4.7
The Littlest Angel

The Littlest Angel (2011)

Animation, Family

Full description
quality   dvdrip bd h264 hd x264

The Littlest Angel 2011 DVDRip English [Accipiter]

Size 716.495 MB   0 seeders     Added 2012-12-07 06:40:36

Stream torrent
Starting‥ You need BitLord! Get it from BitLord.com
To download or stream you need BitLord. Visit them at BitLord.com
[img]image[/img]

Cover:

[img]image[/img]

Release info:

General
Format : Matroska
Format version : Version 2
File size : 683 MiB
Duration : 1h 23mn
Overall bit rate : 1 148 Kbps

Video
ID : 1
Format : MPEG-4 Visual
Format profile : Advanced Simple@L5
Format settings, BVOP : Yes
Format settings, QPel : No
Format settings, GMC : No warppoints
Format settings, Matrix : Default (H.263)
Codec ID : V_MS/VFW/FOURCC / XVID
Codec ID/Hint : XviD
Duration : 1h 23mn
Bit rate : 997 Kbps
Width : 680 pixels
Height : 364 pixels
Display aspect ratio : 1.85:1
Frame rate mode : Constant
Frame rate : 23.976 fps
Color space : YUV
Chroma subsampling : 4:2:0
Bit depth : 8 bits
Scan type : Progressive
Compression mode : Lossy
Bits/(Pixel*Frame) : 0.168
Stream size : 594 MiB (87%)
Default : Yes
Forced : No

Audio
ID : 2
Format : MPEG Audio
Format version : Version 1
Format profile : Layer 3
Muxing mode : Header stripping
Codec ID : A_MPEG/L3
Codec ID/Hint : MP3
Duration : 1h 23mn
Bit rate mode : Constant
Bit rate : 128 Kbps
Channel(s) : 2 channels
Sampling rate : 48.0 KHz
Compression mode : Lossy
Stream size : 76.2 MiB (11%)
Language : English
Default : Yes
Forced : No



Source:
credit to original movie ripper UnKnOwN (Thanks)

IMDB Info:

Based on the fifteenth best-selling children's book of all time, The Littlest Angel tells the story of a young boy who arrives in heaven before his time... 

Director: Dave Kim
Writers: Sean Catherine Derek (screenplay), Sean Roche (screenplay),
Stars: Ed Kelly, Nina Kircher and Clarity Patton 

Genres: Animation
http://www.imdb.com/title/tt1869724/

Screen Shot:

[img]image[/img]
[img]image[/img]
[img]image[/img]
[img]image[/img]
[img]image[/img]
[img]image[/img]



The Littlest Angel 2011 DVDRip English [Accipiter].mkv 716.495 MB
Torrent Downloaded From Digtorrent.org.txt 346 B
Torrent downloaded from souravfile torrents on BTScene.eu.txt 69 B
Gathering some info...

Register and log in Isohunt and see no captcha anymore!

4000 symbols left
Hash F3B219F511EF8B586F13ABDF64FA7AF7D60E3529

Related torrents for "The Littlest Angel 2011 DVDRip English [Accipiter]"

Torrent search:

dvdrip english 2011