imdb
rating

6.8
Zebra

Zebra (2016)

Thriller

Full description
quality   bd x264 dvdrip

Ice Station Zebra (1966)[BRRip.x264-AC3][Napisy PL][Eng]

Size 2.779 GB   2 seeders     Added 2012-12-07 17:20:39

Stream torrent
Starting‥ You need BitLord! Get it from BitLord.com
To download or stream you need BitLord. Visit them at BitLord.com
[center][img]image[/img]
reżyseria: John Sturges
scenariusz: Harry Julian Fink, Douglas Heyes
premiera: 23 października 1968 (Świat) 1968-10-23
produkcja: USA
gatunek: Sensacyjny
muzyka: Michel Legrand
zdjęcia: Daniel L. Fapp 
Opis:
Commander James Ferraday, USN, has new orders: get David Jones, a British civilian, 
Captain Anders, a tough Marine with a platoon of troops, Boris Vasilov, a friendly 
Russian, and the crew of the nuclear sub USS Tigerfish to the North Pole to rescue 
the crew of Drift Ice Station Zebra, a weather station at the top of the world. The 
mission takes on new and dangerous twists as the crew finds out that all is not as 
it seems at Zebra, and that someone will stop at nothing to prevent the mission from 
being completed.
Morska opowieść wojenna, w której amerykańska łódź podwodna zostaje wysłana na 
biegun północny, aby odzyskać radzieckiego satelitę oraz zdjęcia o strategicznym 
znaczeniu. Klimat Zimnej wojny, dominujący w filmie, ulega dalszemu ochłodzeniu, 
gdy wychodzi na jaw, że wyprawa jest sabotowana. Po dotarciu do stacji badawczej, 
celu podróży, okazuje się, że... Film, będący adaptacją powieści Alistaira MacLeana, 
Ice Station Zebra, był ulubionym filmem Howarda Hughesa! Nominowany do Oskara w dwóch 
kategoriach "Najlepsze Zdjęcia" i "Najlepsze Efekty Specjalne".
[img]image[/img]
[img]image[/img]
[img]image[/img]
[img]image[/img]
Obsada:
Rock Hudson .......James Ferraday, kapitan USS
Jim Brown .........Captain Leslie Anders
Ernest Borgnine... Boris Vaslov
Patrick McGoohan.. David Jones
Dane Techniczne:
Ice Station Zebra (1968) -alE13.mkv
Format : Matroska
File size : 2.57 GiB
Duration : 2h 29mn
Overall bit rate : 2 466 Kbps
Movie name : Ice Station Zebra (1968) -alE13
Encoded date : UTC 2012-12-07 07:45:22
Writing application : mkvmerge v5.8.0 
Writing library : libebml v1.2.3 + libmatroska v1.3.0
Video
ID : 1
Format : AVC
Format/Info : Advanced Video Codec
Format profile : Main@L3.1
Format settings, CABAC : Yes
Format settings, ReFrames : 2 frames
Muxing mode : Container profile=Unknown@3.1
Codec ID : V_MPEG4/ISO/AVC
Duration : 2h 29mn
Bit rate : 2 000 Kbps
Width : 1 280 pixels
Height : 584 pixels
Display aspect ratio : 2.2:1
Frame rate mode : Variable
Frame rate : 23.976 fps
Color space : YUV
Chroma subsampling : 4:2:0
Bit depth : 8 bits
Scan type : Progressive
Bits/(Pixel*Frame) : 0.112
Stream size : 2.05 GiB (80%)
Writing library : x264 core 112 r1834 a51816a
Audio
ID : 2
Format : AC-3
Format/Info : Audio Coding 3
Mode extension : CM (complete main)
Muxing mode : Header stripping
Codec ID : A_AC3
Duration : 2h 29mn
Bit rate mode : Constant
Bit rate : 448 Kbps
Channel(s) : 6 channels
Channel positions : Front: L C R, Side: L R, LFE
Sampling rate : 48.0 KHz
Bit depth : 16 bits
Stream size : 478 MiB (18%)
Text #1
ID : 3
Format : VobSub
Codec ID : S_VOBSUB
Codec ID/Info : The same subtitle format used on DVDs
Language : Polish
Text #2
ID : 4
Format : UTF-8
Codec ID : S_TEXT/UTF8
Codec ID/Info : UTF-8 Plain Text
Title : SDH
Language : English
Menu
00:00:00.000 : en:00:00:00.000
00:01:50.110 : en:00:01:50.110
00:11:57.800 : en:00:11:57.800
00:20:14.588 : en:00:20:14.588
00:30:51.558 : en:00:30:51.558
00:41:02.877 : en:00:41:02.877
00:49:28.424 : en:00:49:28.424
00:59:40.911 : en:00:59:40.911
01:09:40.510 : en:01:09:40.510
01:20:44.381 : en:01:20:44.381
01:21:22.377 : en:01:21:22.377
01:23:26.001 : en:01:23:26.001
01:29:39.165 : en:01:29:39.165
01:40:27.021 : en:01:40:27.021
01:50:12.815 : en:01:50:12.815
01:59:21.780 : en:01:59:21.780
02:08:44.550 : en:02:08:44.550
02:19:35.826 : en:02:19:35.826
02:28:18.098 : en:02:28:18.098[/center]
1.jpeg 68.633 KB
2.jpg 150.722 KB
3.jpg 155.602 KB
Gathering some info...

Register and log in Isohunt and see no captcha anymore!

4000 symbols left
Hash ED7732A39A452227BE87DDCFC4E099B1E8150C0F

Related torrents for "Ice Station Zebra (1966)[BRRip.x264-AC3][Napisy PL][Eng]"

Torrent search:

english 1966 x264 bd