K.D. Lang - Even Cowgirls Get the Blues OST(1993)-FLAC

Size 237.446 MB   0 seeders     Added 2012-12-07 23:41:33

Stream torrent
Starting‥ You need BitLord! Get it from BitLord.com
To download or stream you need BitLord. Visit them at BitLord.com
Ripped in sound-juicer on Ubuntu.
[image=tRQyU739nL]
[image=j0e75sNk3b]
Never saw the movie and have heard it wasn't great but this album has some really great songs by K. D. on it.

http://www.discogs.com/kd-lang-Music-From-The-Motion-Picture-Soundtrack-Even-Cowgirls-Get-The-Blues/release/2855172

https://en.wikipedia.org/wiki/Even_Cowgirls_Get_the_Blues_(film)#Soundtrack

 Tracklist
1 		Just Keep Me Moving 	4:42 	
2 		Much Finer Place 	0:51 	
3 		Or Was I 	3:07 	
4 		Hush Sweet Lover 	4:05 	
5 		Myth 	4:08 	
6 		Apogee 	0:37 	
7 		Virtual Vortex 	0:44 	
8 		Lifted By Love 	3:02 	
9 		Overture 	2:03 	
10 		Kundalini Yoga Waltz 	1:07 	
11 		In Perfect Dreams 	3:07 	
12 		Curious Soul Astray 	3:40 	
13 		Ride Of Bonanza Jellybean 	1:47 	
14 		Don’t Be A Lemming Polka 	2:17 	
15 		Sweet Little Cherokee 	2:48 	
16 		Cowgirl Pride 	1:47 	

Enjoy! :)

General
Complete name : /media/night/K.D. Lang - Even Cowgirls Get the Blues OST(1993)-FLAC/1 - Just Keep Me Moving.flac
Format : FLAC
Format/Info : Free Lossless Audio Codec
File size : 32.9 MiB
Duration : 4mn 41s
Overall bit rate mode : Variable
Overall bit rate : 980 Kbps
Album : Even Cowgirls Get the Blues
Album/Performer : K.D. Lang
Track name : Just Keep Me Moving
Track name/Position : 1
Track name/Total : 16
Performer : K.D. Lang
Recorded date : 1993-11-02

Audio
Format : FLAC
Format/Info : Free Lossless Audio Codec
Duration : 4mn 41s
Bit rate mode : Variable
Bit rate : 980 Kbps
Channel(s) : 2 channels
Sampling rate : 44.1 KHz
Bit depth : 16 bits
Stream size : 32.9 MiB (100%)
Writing library : GStreamer encoded vorbiscomment

General
Complete name : /media/night/K.D. Lang - Even Cowgirls Get the Blues OST(1993)-FLAC/10 - Kundalini Yoga Waltz.flac
Format : FLAC
Format/Info : Free Lossless Audio Codec
File size : 6.18 MiB
Duration : 1mn 7s
Overall bit rate mode : Variable
Overall bit rate : 772 Kbps
Album : Even Cowgirls Get the Blues
Album/Performer : K.D. Lang
Track name : Kundalini Yoga Waltz
Track name/Position : 10
Track name/Total : 16
Performer : K.D. Lang
Recorded date : 1993-11-02

Audio
Format : FLAC
Format/Info : Free Lossless Audio Codec
Duration : 1mn 7s
Bit rate mode : Variable
Bit rate : 772 Kbps
Channel(s) : 2 channels
Sampling rate : 44.1 KHz
Bit depth : 16 bits
Stream size : 6.18 MiB (100%)
Writing library : GStreamer encoded vorbiscomment

General
Complete name : /media/night/K.D. Lang - Even Cowgirls Get the Blues OST(1993)-FLAC/11 - In Perfect Dreams.flac
Format : FLAC
Format/Info : Free Lossless Audio Codec
File size : 18.5 MiB
Duration : 3mn 8s
Overall bit rate mode : Variable
Overall bit rate : 825 Kbps
Album : Even Cowgirls Get the Blues
Album/Performer : K.D. Lang
Track name : In Perfect Dreams
Track name/Position : 11
Track name/Total : 16
Performer : K.D. Lang
Recorded date : 1993-11-02

Audio
Format : FLAC
Format/Info : Free Lossless Audio Codec
Duration : 3mn 8s
Bit rate mode : Variable
Bit rate : 825 Kbps
Channel(s) : 2 channels
Sampling rate : 44.1 KHz
Bit depth : 16 bits
Stream size : 18.5 MiB (100%)
Writing library : GStreamer encoded vorbiscomment

General
Complete name : /media/night/K.D. Lang - Even Cowgirls Get the Blues OST(1993)-FLAC/12 - Curious Soul Astray.flac
Format : FLAC
Format/Info : Free Lossless Audio Codec
File size : 22.8 MiB
Duration : 3mn 40s
Overall bit rate mode : Variable
Overall bit rate : 867 Kbps
Album : Even Cowgirls Get the Blues
Album/Performer : K.D. Lang
Track name : Curious Soul Astray
Track name/Position : 12
Track name/Total : 16
Performer : K.D. Lang
Recorded date : 1993-11-02

Audio
Format : FLAC
Format/Info : Free Lossless Audio Codec
Duration : 3mn 40s
Bit rate mode : Variable
Bit rate : 867 Kbps
Channel(s) : 2 channels
Sampling rate : 44.1 KHz
Bit depth : 16 bits
Stream size : 22.8 MiB (100%)
Writing library : GStreamer encoded vorbiscomment

General
Complete name : /media/night/K.D. Lang - Even Cowgirls Get the Blues OST(1993)-FLAC/13 - Ride of Bonanza JellyBean.flac
Format : FLAC
Format/Info : Free Lossless Audio Codec
File size : 10.2 MiB
Duration : 1mn 47s
Overall bit rate mode : Variable
Overall bit rate : 800 Kbps
Album : Even Cowgirls Get the Blues
Album/Performer : K.D. Lang
Track name : Ride of Bonanza JellyBean
Track name/Position : 13
Track name/Total : 16
Performer : K.D. Lang
Recorded date : 1993-11-02

Audio
Format : FLAC
Format/Info : Free Lossless Audio Codec
Duration : 1mn 47s
Bit rate mode : Variable
Bit rate : 800 Kbps
Channel(s) : 2 channels
Sampling rate : 44.1 KHz
Bit depth : 16 bits
Stream size : 10.2 MiB (100%)
Writing library : GStreamer encoded vorbiscomment

General
Complete name : /media/night/K.D. Lang - Even Cowgirls Get the Blues OST(1993)-FLAC/14 - Don't Be a Lemming Polka.flac
Format : FLAC
Format/Info : Free Lossless Audio Codec
File size : 14.2 MiB
Duration : 2mn 18s
Overall bit rate mode : Variable
Overall bit rate : 863 Kbps
Album : Even Cowgirls Get the Blues
Album/Performer : K.D. Lang
Track name : Don't Be a Lemming Polka
Track name/Position : 14
Track name/Total : 16
Performer : K.D. Lang
Recorded date : 1993-11-02

Audio
Format : FLAC
Format/Info : Free Lossless Audio Codec
Duration : 2mn 18s
Bit rate mode : Variable
Bit rate : 863 Kbps
Channel(s) : 2 channels
Sampling rate : 44.1 KHz
Bit depth : 16 bits
Stream size : 14.2 MiB (100%)
Writing library : GStreamer encoded vorbiscomment

General
Complete name : /media/night/K.D. Lang - Even Cowgirls Get the Blues OST(1993)-FLAC/15 - Sweet Little Cherokee.flac
Format : FLAC
Format/Info : Free Lossless Audio Codec
File size : 14.3 MiB
Duration : 2mn 48s
Overall bit rate mode : Variable
Overall bit rate : 713 Kbps
Album : Even Cowgirls Get the Blues
Album/Performer : K.D. Lang
Track name : Sweet Little Cherokee
Track name/Position : 15
Track name/Total : 16
Performer : K.D. Lang
Recorded date : 1993-11-02

Audio
Format : FLAC
Format/Info : Free Lossless Audio Codec
Duration : 2mn 48s
Bit rate mode : Variable
Bit rate : 713 Kbps
Channel(s) : 2 channels
Sampling rate : 44.1 KHz
Bit depth : 16 bits
Stream size : 14.3 MiB (100%)
Writing library : GStreamer encoded vorbiscomment

General
Complete name : /media/night/K.D. Lang - Even Cowgirls Get the Blues OST(1993)-FLAC/16 - Cowgirl Pride.flac
Format : FLAC
Format/Info : Free Lossless Audio Codec
File size : 11.9 MiB
Duration : 1mn 46s
Overall bit rate mode : Variable
Overall bit rate : 935 Kbps
Album : Even Cowgirls Get the Blues
Album/Performer : K.D. Lang
Track name : Cowgirl Pride
Track name/Position : 16
Track name/Total : 16
Performer : K.D. Lang
Recorded date : 1993-11-02

Audio
Format : FLAC
Format/Info : Free Lossless Audio Codec
Duration : 1mn 46s
Bit rate mode : Variable
Bit rate : 935 Kbps
Channel(s) : 2 channels
Sampling rate : 44.1 KHz
Bit depth : 16 bits
Stream size : 11.9 MiB (100%)
Writing library : GStreamer encoded vorbiscomment

General
Complete name : /media/night/K.D. Lang - Even Cowgirls Get the Blues OST(1993)-FLAC/2 - Much Finer Place.flac
Format : FLAC
Format/Info : Free Lossless Audio Codec
File size : 3.10 MiB
Duration : 52s 400ms
Overall bit rate mode : Variable
Overall bit rate : 496 Kbps
Album : Even Cowgirls Get the Blues
Album/Performer : K.D. Lang
Track name : Much Finer Place
Track name/Position : 2
Track name/Total : 16
Performer : K.D. Lang
Recorded date : 1993-11-02

Audio
Format : FLAC
Format/Info : Free Lossless Audio Codec
Duration : 52s 400ms
Bit rate mode : Variable
Bit rate : 496 Kbps
Channel(s) : 2 channels
Sampling rate : 44.1 KHz
Bit depth : 16 bits
Stream size : 3.10 MiB (100%)
Writing library : GStreamer encoded vorbiscomment

General
Complete name : /media/night/K.D. Lang - Even Cowgirls Get the Blues OST(1993)-FLAC/3 - Or Was I.flac
Format : FLAC
Format/Info : Free Lossless Audio Codec
File size : 15.1 MiB
Duration : 3mn 8s
Overall bit rate mode : Variable
Overall bit rate : 671 Kbps
Album : Even Cowgirls Get the Blues
Album/Performer : K.D. Lang
Track name : Or Was I
Track name/Position : 3
Track name/Total : 16
Performer : K.D. Lang
Recorded date : 1993-11-02

Audio
Format : FLAC
Format/Info : Free Lossless Audio Codec
Duration : 3mn 8s
Bit rate mode : Variable
Bit rate : 671 Kbps
Channel(s) : 2 channels
Sampling rate : 44.1 KHz
Bit depth : 16 bits
Stream size : 15.1 MiB (100%)
Writing library : GStreamer encoded vorbiscomment

General
Complete name : /media/night/K.D. Lang - Even Cowgirls Get the Blues OST(1993)-FLAC/4 - Hush Sweet Lover.flac
Format : FLAC
Format/Info : Free Lossless Audio Codec
File size : 24.4 MiB
Duration : 4mn 6s
Overall bit rate mode : Variable
Overall bit rate : 831 Kbps
Album : Even Cowgirls Get the Blues
Album/Performer : K.D. Lang
Track name : Hush Sweet Lover
Track name/Position : 4
Track name/Total : 16
Performer : K.D. Lang
Recorded date : 1993-11-02

Audio
Format : FLAC
Format/Info : Free Lossless Audio Codec
Duration : 4mn 6s
Bit rate mode : Variable
Bit rate : 831 Kbps
Channel(s) : 2 channels
Sampling rate : 44.1 KHz
Bit depth : 16 bits
Stream size : 24.4 MiB (100%)
Writing library : GStreamer encoded vorbiscomment

General
Complete name : /media/night/K.D. Lang - Even Cowgirls Get the Blues OST(1993)-FLAC/5 - Myth.flac
Format : FLAC
Format/Info : Free Lossless Audio Codec
File size : 16.3 MiB
Duration : 4mn 8s
Overall bit rate mode : Variable
Overall bit rate : 550 Kbps
Album : Even Cowgirls Get the Blues
Album/Performer : K.D. Lang
Track name : Myth
Track name/Position : 5
Track name/Total : 16
Performer : K.D. Lang
Recorded date : 1993-11-02

Audio
Format : FLAC
Format/Info : Free Lossless Audio Codec
Duration : 4mn 8s
Bit rate mode : Variable
Bit rate : 550 Kbps
Channel(s) : 2 channels
Sampling rate : 44.1 KHz
Bit depth : 16 bits
Stream size : 16.3 MiB (100%)
Writing library : GStreamer encoded vorbiscomment

General
Complete name : /media/night/K.D. Lang - Even Cowgirls Get the Blues OST(1993)-FLAC/6 - Apogee.flac
Format : FLAC
Format/Info : Free Lossless Audio Codec
File size : 2.96 MiB
Duration : 38s 66ms
Overall bit rate mode : Variable
Overall bit rate : 651 Kbps
Album : Even Cowgirls Get the Blues
Album/Performer : K.D. Lang
Track name : Apogee
Track name/Position : 6
Track name/Total : 16
Performer : K.D. Lang
Recorded date : 1993-11-02

Audio
Format : FLAC
Format/Info : Free Lossless Audio Codec
Duration : 38s 66ms
Bit rate mode : Variable
Bit rate : 651 Kbps
Channel(s) : 2 channels
Sampling rate : 44.1 KHz
Bit depth : 16 bits
Stream size : 2.96 MiB (100%)
Writing library : GStreamer encoded vorbiscomment

General
Complete name : /media/night/K.D. Lang - Even Cowgirls Get the Blues OST(1993)-FLAC/7 - Virtual Vortex.flac
Format : FLAC
Format/Info : Free Lossless Audio Codec
File size : 3.47 MiB
Duration : 44s 400ms
Overall bit rate mode : Variable
Overall bit rate : 656 Kbps
Album : Even Cowgirls Get the Blues
Album/Performer : K.D. Lang
Track name : Virtual Vortex
Track name/Position : 7
Track name/Total : 16
Performer : K.D. Lang
Recorded date : 1993-11-02

Audio
Format : FLAC
Format/Info : Free Lossless Audio Codec
Duration : 44s 400ms
Bit rate mode : Variable
Bit rate : 656 Kbps
Channel(s) : 2 channels
Sampling rate : 44.1 KHz
Bit depth : 16 bits
Stream size : 3.47 MiB (100%)
Writing library : GStreamer encoded vorbiscomment

General
Complete name : /media/night/K.D. Lang - Even Cowgirls Get the Blues OST(1993)-FLAC/8 - Lifted by Love.flac
Format : FLAC
Format/Info : Free Lossless Audio Codec
File size : 18.5 MiB
Duration : 3mn 3s
Overall bit rate mode : Variable
Overall bit rate : 847 Kbps
Album : Even Cowgirls Get the Blues
Album/Performer : K.D. Lang
Track name : Lifted by Love
Track name/Position : 8
Track name/Total : 16
Performer : K.D. Lang
Recorded date : 1993-11-02

Audio
Format : FLAC
Format/Info : Free Lossless Audio Codec
Duration : 3mn 3s
Bit rate mode : Variable
Bit rate : 847 Kbps
Channel(s) : 2 channels
Sampling rate : 44.1 KHz
Bit depth : 16 bits
Stream size : 18.5 MiB (100%)
Writing library : GStreamer encoded vorbiscomment

General
Complete name : /media/night/K.D. Lang - Even Cowgirls Get the Blues OST(1993)-FLAC/9 - Overture.flac
Format : FLAC
Format/Info : Free Lossless Audio Codec
File size : 9.27 MiB
Duration : 2mn 4s
Overall bit rate mode : Variable
Overall bit rate : 625 Kbps
Album : Even Cowgirls Get the Blues
Album/Performer : K.D. Lang
Track name : Overture
Track name/Position : 9
Track name/Total : 16
Performer : K.D. Lang
Recorded date : 1993-11-02

Audio
Format : FLAC
Format/Info : Free Lossless Audio Codec
Duration : 2mn 4s
Bit rate mode : Variable
Bit rate : 625 Kbps
Channel(s) : 2 channels
Sampling rate : 44.1 KHz
Bit depth : 16 bits
Stream size : 9.27 MiB (100%)
Writing library : GStreamer encoded vorbiscomment

General
Complete name : /media/night/K.D. Lang - Even Cowgirls Get the Blues OST(1993)-FLAC/ecgtbback.jpg
Format : JPEG
File size : 1.17 MiB

Image
Format : JPEG
Width : 1 406 pixels
Height : 1 409 pixels
Chroma subsampling : 4:2:0
Bit depth : 8 bits
Compression mode : Lossy

General
Complete name : /media/night/K.D. Lang - Even Cowgirls Get the Blues OST(1993)-FLAC/ecgtbfront.jpg
Format : JPEG
File size : 1.14 MiB

Image
Format : JPEG
Width : 1 414 pixels
Height : 1 409 pixels
Chroma subsampling : 4:2:0
Bit depth : 8 bits
Compression mode : Lossy

1 - Just Keep Me Moving.flac 34.536 MB
10 - Kundalini Yoga Waltz.flac 6.485 MB
11 - In Perfect Dreams.flac 19.426 MB
Gathering some info...

Register and log in Isohunt and see no captcha anymore!

4000 symbols left
Hash D06D0221150310B100FB7DE6B48AD66D35E09EDF