Wang Chung-To Live And Die In LA-OST(1985)-FLAC

Size 237.174 MB   2 seeders     Added 2012-12-08 04:01:33

Stream torrent
Starting‚Ä• You need BitLord! Get it from 1BitLord.com
To download or stream you need BitLord. Visit them at BitLord.com
Ripped in Sound-juicer on Ubuntu.

[image=rXA0DGUjWB]

https://en.wikipedia.org/wiki/To_Live_and_Die_in_L.A._%28soundtrack%29

http://www.discogs.com/Wang-Chung-To-Live-And-Die-In-LA/release/500980

No. 	Title 	Length 	
1. 	"To Live and Die in L.A." (Tony Swain, Steve Jolley) 	4:53
2. 	"Lullaby" 	4:43
3. 	"Wake Up, Stop Dreaming" (Wang Chung, David Motion) 	4:35
4. 	"Wait" (Chris Hughes, Ross Cullum) 	4:26
5. 	"City of the Angels" 	9:17
6. 	"The Red Stare" 	3:11
7. 	"Black-Blue-White" 	2:23
8. 	"Every Big City" 	5:09
Total length:
	38:37

Enjoy! :)

General
Complete name : /media/night/Wang Chung-To Live And Die In LA-OST(1985)-FLAC/1. To live and Die In LA.flac
Format : FLAC
Format/Info : Free Lossless Audio Codec
File size : 29.8 MiB
Duration : 4mn 53s
Overall bit rate mode : Variable
Overall bit rate : 850 Kbps
Album : Unknown Title
Album/Performer : Unknown Artist
Track name : Track 1
Track name/Position : 1
Track name/Total : 8
Performer : Unknown Artist

Audio
Format : FLAC
Format/Info : Free Lossless Audio Codec
Duration : 4mn 53s
Bit rate mode : Variable
Bit rate : 850 Kbps
Channel(s) : 2 channels
Sampling rate : 44.1 KHz
Bit depth : 16 bits
Stream size : 29.8 MiB (100%)
Writing library : GStreamer encoded vorbiscomment

General
Complete name : /media/night/Wang Chung-To Live And Die In LA-OST(1985)-FLAC/2. Lullaby.flac
Format : FLAC
Format/Info : Free Lossless Audio Codec
File size : 25.0 MiB
Duration : 4mn 43s
Overall bit rate mode : Variable
Overall bit rate : 742 Kbps
Album : Unknown Title
Album/Performer : Unknown Artist
Track name : Track 2
Track name/Position : 2
Track name/Total : 8
Performer : Unknown Artist

Audio
Format : FLAC
Format/Info : Free Lossless Audio Codec
Duration : 4mn 43s
Bit rate mode : Variable
Bit rate : 742 Kbps
Channel(s) : 2 channels
Sampling rate : 44.1 KHz
Bit depth : 16 bits
Stream size : 25.0 MiB (100%)
Writing library : GStreamer encoded vorbiscomment

General
Complete name : /media/night/Wang Chung-To Live And Die In LA-OST(1985)-FLAC/3. Wake Up, Stop Dreaming.flac
Format : FLAC
Format/Info : Free Lossless Audio Codec
File size : 29.2 MiB
Duration : 4mn 35s
Overall bit rate mode : Variable
Overall bit rate : 891 Kbps
Album : Unknown Title
Album/Performer : Unknown Artist
Track name : Track 3
Track name/Position : 3
Track name/Total : 8
Performer : Unknown Artist

Audio
Format : FLAC
Format/Info : Free Lossless Audio Codec
Duration : 4mn 35s
Bit rate mode : Variable
Bit rate : 891 Kbps
Channel(s) : 2 channels
Sampling rate : 44.1 KHz
Bit depth : 16 bits
Stream size : 29.2 MiB (100%)
Writing library : GStreamer encoded vorbiscomment

General
Complete name : /media/night/Wang Chung-To Live And Die In LA-OST(1985)-FLAC/4. Wait.flac
Format : FLAC
Format/Info : Free Lossless Audio Codec
File size : 25.4 MiB
Duration : 4mn 25s
Overall bit rate mode : Variable
Overall bit rate : 802 Kbps
Album : Unknown Title
Album/Performer : Unknown Artist
Track name : Track 4
Track name/Position : 4
Track name/Total : 8
Performer : Unknown Artist

Audio
Format : FLAC
Format/Info : Free Lossless Audio Codec
Duration : 4mn 25s
Bit rate mode : Variable
Bit rate : 802 Kbps
Channel(s) : 2 channels
Sampling rate : 44.1 KHz
Bit depth : 16 bits
Stream size : 25.4 MiB (100%)
Writing library : GStreamer encoded vorbiscomment

General
Complete name : /media/night/Wang Chung-To Live And Die In LA-OST(1985)-FLAC/5. City of the Angels.flac
Format : FLAC
Format/Info : Free Lossless Audio Codec
File size : 56.6 MiB
Duration : 9mn 17s
Overall bit rate mode : Variable
Overall bit rate : 852 Kbps
Album : Unknown Title
Album/Performer : Unknown Artist
Track name : Track 5
Track name/Position : 5
Track name/Total : 8
Performer : Unknown Artist

Audio
Format : FLAC
Format/Info : Free Lossless Audio Codec
Duration : 9mn 17s
Bit rate mode : Variable
Bit rate : 852 Kbps
Channel(s) : 2 channels
Sampling rate : 44.1 KHz
Bit depth : 16 bits
Stream size : 56.6 MiB (100%)
Writing library : GStreamer encoded vorbiscomment

General
Complete name : /media/night/Wang Chung-To Live And Die In LA-OST(1985)-FLAC/6. The Red Stare.flac
Format : FLAC
Format/Info : Free Lossless Audio Codec
File size : 11.7 MiB
Duration : 3mn 11s
Overall bit rate mode : Variable
Overall bit rate : 513 Kbps
Album : Unknown Title
Album/Performer : Unknown Artist
Track name : Track 6
Track name/Position : 6
Track name/Total : 8
Performer : Unknown Artist

Audio
Format : FLAC
Format/Info : Free Lossless Audio Codec
Duration : 3mn 11s
Bit rate mode : Variable
Bit rate : 513 Kbps
Channel(s) : 2 channels
Sampling rate : 44.1 KHz
Bit depth : 16 bits
Stream size : 11.7 MiB (100%)
Writing library : GStreamer encoded vorbiscomment

General
Complete name : /media/night/Wang Chung-To Live And Die In LA-OST(1985)-FLAC/7. Black-Blue-White.flac
Format : FLAC
Format/Info : Free Lossless Audio Codec
File size : 14.8 MiB
Duration : 2mn 22s
Overall bit rate mode : Variable
Overall bit rate : 870 Kbps
Album : Unknown Title
Album/Performer : Unknown Artist
Track name : Track 7
Track name/Position : 7
Track name/Total : 8
Performer : Unknown Artist

Audio
Format : FLAC
Format/Info : Free Lossless Audio Codec
Duration : 2mn 22s
Bit rate mode : Variable
Bit rate : 870 Kbps
Channel(s) : 2 channels
Sampling rate : 44.1 KHz
Bit depth : 16 bits
Stream size : 14.8 MiB (100%)
Writing library : GStreamer encoded vorbiscomment

General
Complete name : /media/night/Wang Chung-To Live And Die In LA-OST(1985)-FLAC/8. Every Big City.flac
Format : FLAC
Format/Info : Free Lossless Audio Codec
File size : 32.8 MiB
Duration : 5mn 11s
Overall bit rate mode : Variable
Overall bit rate : 881 Kbps
Album : Unknown Title
Album/Performer : Unknown Artist
Track name : Track 8
Track name/Position : 8
Track name/Total : 8
Performer : Unknown Artist

Audio
Format : FLAC
Format/Info : Free Lossless Audio Codec
Duration : 5mn 11s
Bit rate mode : Variable
Bit rate : 881 Kbps
Channel(s) : 2 channels
Sampling rate : 44.1 KHz
Bit depth : 16 bits
Stream size : 32.8 MiB (100%)
Writing library : GStreamer encoded vorbiscomment

General
Complete name : /media/night/Wang Chung-To Live And Die In LA-OST(1985)-FLAC/wctladila85.jpg
Format : JPEG
File size : 974 KiB

Image
Format : JPEG
Width : 1 414 pixels
Height : 1 409 pixels
Chroma subsampling : 4:2:0
Bit depth : 8 bits
Compression mode : Lossy

1. To live and Die In LA.flac 31.197 MB
2. Lullaby.flac 26.259 MB
3. Wake Up, Stop Dreaming.flac 30.648 MB
Gathering some info...

Register and log in Isohunt and see no captcha anymore!

4000 symbols left
Hash 5E3737AFA198075F83AE879CA1D0C715F23AEF23

Related torrents for "Wang Chung-To Live And Die In LA-OST(1985)-FLAC"

Torrent search:

lossless lossless 1985