imdb
rating

6.2
Killing Them Softly

Killing Them Softly (2012)

Crime, Thriller

Full description
quality   dvdrip dvd screener bd

Killing Them Softly 2012 DVDRip XviD-PTpOWeR

Size 719.5 MB   0 seeders     Added 2012-12-08 09:53:53

Stream torrent
Starting‥ You need BitLord! Get it from 1BitLord.com
To download or stream you need BitLord. Visit them at BitLord.com
\r\n\r\n\r\n\r\n\r\nFormat                           : AVI\r\nFormat/Info                      : Audio Video Interleave\r\nFile size                        : 701 MiB\r\nDuration                         : 1h 41mn\r\nOverall bit rate                 : 969 Kbps\r\nWriting application              : Nandub v1.0rc2\r\nWriting library                  : Nandub build 1852/release\r\nVideo\r\nID                               : 0\r\nFormat                           : MPEG-4 Visual\r\nFormat profile                   : Advanced Simple@L5\r\nFormat settings, BVOP            : Yes\r\nFormat settings, QPel            : No\r\nFormat settings, GMC             : No warppoints\r\nFormat settings, Matrix          : Default (H.263)\r\nCodec ID                         : XVID\r\nCodec ID/Hint                    : XviD\r\nDuration                         : 1h 41mn\r\nBit rate                         : 827 Kbps\r\nWidth                            : 640 pixels\r\nHeight                           : 272 pixels\r\nDisplay aspect ratio             : 2.35:1\r\nFrame rate                       : 23.976 fps\r\nColor space                      : YUV\r\nChroma subsampling               : 4:2:0\r\nBit depth                        : 8 bits\r\nScan type                        : Progressive\r\nBits/(Pixel*Frame)               : 0.198\r\nStream size                      : 598 MiB (85%)\r\nWriting library                  : XviD 61\r\nAudio\r\nID                               : 1\r\nFormat                           : MPEG Audio\r\nFormat version                   : Version 1\r\nFormat profile                   : Layer 3\r\nMode                             : Joint stereo\r\nMode extension                   : MS Stereo\r\nCodec ID                         : 55\r\nCodec ID/Hint                    : MP3\r\nDuration                         : 1h 41mn\r\nBit rate mode                    : Variable\r\nBit rate                         : 129 Kbps\r\nChannel(s)                       : 2 channels\r\nSampling rate                    : 48.0 KHz\r\nStream size                      : 93.5 MiB (13%)\r\nAlignment                        : Aligned on interleaves\r\nInterleave, duration             : 24 ms (0.58 video frame)\r\nInterleave, preload duration     : 136 ms\r\nWriting library                  : LAME3.93 \r\n\r\n\r\n\r\n\r\n
Killing Them Softly.2012.DVDRip.XviD-PTpOWeR/info.nfo 5.215 KB
Killing Them Softly.2012.DVDRip.XviD-PTpOWeR/Killing Them Softly_2012_LIMITED_DVDRip_Xvid_UnKnOwN.wmv 719.489 MB
Killing Them Softly.2012.DVDRip.XviD-PTpOWeR/READ this before playing the Video.txt 5.748 KB
Gathering some info...

Register and log in Isohunt and see no captcha anymore!

4000 symbols left
Hash b3fb794b1d53dc160c38f29026e964fcde152b0f

Related torrents for "Killing Them Softly 2012 DVDRip XviD-PTpOWeR"

Torrent search:

dvdrip 2012