imdb
rating

6.9
Hitchcock

Hitchcock (2012)

Drama

Full description
quality   dvdrip x264 fullhd hd

Hitchcock 2012 DVDRip XviD-PTpOWeR

Size 708.431 MB   0 seeders     Added 2012-12-08 09:51:12

Stream torrent
Starting‥ You need BitLord! Get it from BitLord.com
To download or stream you need BitLord. Visit them at BitLord.com
\r\n\r\n\r\n\r\n             \r\nFormat                           : AVI\r\nFormat/Info                      : Audio Video Interleave\r\nFile size                        : 698 MiB\r\nDuration                         : 1h 43mn\r\nOverall bit rate                 : 944 Kbps\r\nWriting application              : Nandub v1.0rc2\r\nWriting library                  : Nandub build 1852/release\r\nVideo\r\nID                               : 0\r\nFormat                           : MPEG-4 Visual\r\nFormat profile                   : Advanced Simple@L5\r\nFormat settings, BVOP            : Yes\r\nFormat settings, QPel            : No\r\nFormat settings, GMC             : No warppoints\r\nFormat settings, Matrix          : Default (H.263)\r\nCodec ID                         : XVID\r\nCodec ID/Hint                    : XviD\r\nDuration                         : 1h 43mn\r\nBit rate                         : 815 Kbps\r\nWidth                            : 592 pixels\r\nHeight                           : 320 pixels\r\nDisplay aspect ratio             : 2.691\r\nFrame rate                       : 25.000 fps\r\nColor space                      : YUV\r\nChroma subsampling               : 4:2:0\r\nBit depth                        : 8 bits\r\nScan type                        : Progressive\r\nBits/(Pixel*Frame)               : 0.172\r\nStream size                      : 603 MiB (86%)\r\nWriting library                  : XviD 1.0.3 (UTC 2004-12-20)\r\nAudio\r\nID                               : 1\r\nFormat                           : MPEG Audio\r\nFormat version                   : Version 1\r\nFormat profile                   : Layer 3\r\nMode                             : Joint stereo\r\nCodec ID                         : 55\r\nCodec ID/Hint                    : MP3\r\nDuration                         : 1h 43mn\r\nBit rate mode                    : Variable\r\nBit rate                         : 116 Kbps\r\nNominal bit rate                 : 128 Kbps\r\nChannel(s)                       : 2 channels\r\nSampling rate                    : 48.0 KHz\r\nStream size                      : 86.0 MiB (12%)\r\nAlignment                        : Aligned on interleaves\r\nInterleave, duration             : 24 ms (0.60 video frame)\r\n\r\n\r\n\r\n\r\n\r\n\r\n\r\n\r\n\r\n
Hitchcock.2012.DVDRip.XviD-PTpOWeR/Hitchcock_2012_LIMITED_DVDRip_Xvid_UnKnOwN.wmv 708.269 MB
Hitchcock.2012.DVDRip.XviD-PTpOWeR/info.nfo 5.215 KB
Hitchcock.2012.DVDRip.XviD-PTpOWeR/READ this before playing the Video.txt 5.748 KB
Gathering some info...

Register and log in Isohunt and see no captcha anymore!

4000 symbols left
Hash e86a467d162fca6287ed14814243e5fb6a020117

Related torrents for "Hitchcock 2012 DVDRip XviD-PTpOWeR"

Torrent search:

dvdrip 2012