imdb
rating

7.3
Flight

Flight (2012)

Drama

Full description

Flight 2012 DVDRip XviD-PTpOWeR

Size 722.56 MB   0 seeders     Added 2012-12-08 09:50:13

Stream torrent
Starting‥ You need BitLord! Get it from 1BitLord.com
To download or stream you need BitLord. Visit them at BitLord.com
\r\n\r\n\r\n\r\n             \r\nFormat                           : AVI\r\nFormat/Info                      : Audio Video Interleave\r\nFile size                        : 698 MiB\r\nDuration                         : 1h 43mn\r\nOverall bit rate                 : 944 Kbps\r\nWriting application              : Nandub v1.0rc2\r\nWriting library                  : Nandub build 1852/release\r\nVideo\r\nID                               : 0\r\nFormat                           : MPEG-4 Visual\r\nFormat profile                   : Advanced Simple@L5\r\nFormat settings, BVOP            : Yes\r\nFormat settings, QPel            : No\r\nFormat settings, GMC             : No warppoints\r\nFormat settings, Matrix          : Default (H.263)\r\nCodec ID                         : XVID\r\nCodec ID/Hint                    : XviD\r\nDuration                         : 1h 43mn\r\nBit rate                         : 815 Kbps\r\nWidth                            : 592 pixels\r\nHeight                           : 320 pixels\r\nDisplay aspect ratio             : 2.691\r\nFrame rate                       : 25.000 fps\r\nColor space                      : YUV\r\nChroma subsampling               : 4:2:0\r\nBit depth                        : 8 bits\r\nScan type                        : Progressive\r\nBits/(Pixel*Frame)               : 0.172\r\nStream size                      : 603 MiB (86%)\r\nWriting library                  : XviD 1.0.3 (UTC 2004-12-20)\r\nAudio\r\nID                               : 1\r\nFormat                           : MPEG Audio\r\nFormat version                   : Version 1\r\nFormat profile                   : Layer 3\r\nMode                             : Joint stereo\r\nCodec ID                         : 55\r\nCodec ID/Hint                    : MP3\r\nDuration                         : 1h 43mn\r\nBit rate mode                    : Variable\r\nBit rate                         : 116 Kbps\r\nNominal bit rate                 : 128 Kbps\r\nChannel(s)                       : 2 channels\r\nSampling rate                    : 48.0 KHz\r\nStream size                      : 86.0 MiB (12%)\r\nAlignment                        : Aligned on interleaves\r\nInterleave, duration             : 24 ms (0.60 video frame)\r\n\r\n\r\n\r\n\r\n\r\n\r\n\r\n\r\n\r\n
Flight.2012.DVDRip.XviD-PTpOWeR/Flight_2012_LIMITED_DVDRip_Xvid_UnKnOwN.wmv 722.549 MB
Flight.2012.DVDRip.XviD-PTpOWeR/info.nfo 5.215 KB
Flight.2012.DVDRip.XviD-PTpOWeR/READ this before playing the Video.txt 5.748 KB
Gathering some info...

Register and log in Isohunt and see no captcha anymore!

4000 symbols left
Hash 929e89352609f890af461425c2f3fdda0d960b1c

Related torrents for "Flight 2012 DVDRip XviD-PTpOWeR"

Torrent search:

dvdrip 2012