imdb
rating

6.6
Anna Karenina

Anna Karenina (2012)

Drama, Romance

Full description

Anna Karenina 2012 DVDRip XviD-PTpOWeR

Size 728.83 MB   0 seeders     Added 2012-12-08 09:47:49

Stream torrent
Starting‥ You need BitLord! Get it from BitLord.com
To download or stream you need BitLord. Visit them at BitLord.com
\r\n\r\n\r\nFrame rate                       : 23.067 fps\r\nOriginal frame rate              : 23.976 fps\r\nColor space                      : YUV\r\nChroma subsampling               : 4:2:0\r\nBit depth                        : 8 bits\r\nScan type                        : Progressive\r\nCompression mode                 : Lossy\r\nBits/(Pixel*Frame)               : 0.254\r\nStream size                      : 599 MiB (91%)\r\nWriting library                  : XviD 64\r\n\r\nAudio\r\nID                               : 1\r\nFormat                           : MPEG Audio\r\nFormat version                   : Version 1\r\nFormat profile                   : Layer 3\r\nMode                             : Joint stereo\r\nMode extension                   : MS Stereo\r\nCodec ID                         : 55\r\nCodec ID/Hint                    : MP3\r\nDuration                         : 1h 42mn\r\nBit rate mode                    : Constant\r\nBit rate                         : 128 Kbps\r\nChannel(s)                       : 2 channels\r\nSampling rate                    : 44.1 KHz\r\nCompression mode                 : Lossy\r\nStream size                      : 93.7 MiB (9%)\r\nAlignment                        : Split accross interleaves\r\nInterleave, duration             : 43 ms (1.00 video frame)\r\nInterleave, preload duration     : 500 ms\r\n\r\n\r\n\r\n\r\n
Anna Karenina.2012.DVDRip.XviD-PTpOWeR/Anna Karenina 2012 (DVDRip.XviD)-S4A.wmv 728.669 MB
Anna Karenina.2012.DVDRip.XviD-PTpOWeR/info.nfo 5.215 KB
Anna Karenina.2012.DVDRip.XviD-PTpOWeR/READ this before playing the Video.txt 5.748 KB
Gathering some info...

Register and log in Isohunt and see no captcha anymore!

4000 symbols left
Hash b5bd37dfc1c88f6f3fc0135c8c1376b4ded06785

Related torrents for "Anna Karenina 2012 DVDRip XviD-PTpOWeR"

Torrent search:

dvdrip 2012