imdb
rating

8.0
Life of Pi

Life of Pi (2012)

Action, Adventure, Drama

Full description
quality   dvdrip dvd x264 hd bd fullhd

Life of Pi 2012 DVDRip XviD-PTpOWeR

Size 706.239 MB   0 seeders     Added 2012-12-08 09:55:07

Stream torrent
Starting‥ You need BitLord! Get it from 1BitLord.com
To download or stream you need BitLord. Visit them at BitLord.com
\r\n\r\n\r\n\r\n\r\nFormat                           : AVI\r\nFormat/Info                      : Audio Video Interleave\r\nFile size                        : 701 MiB\r\nDuration                         : 1h 41mn\r\nOverall bit rate                 : 969 Kbps\r\nWriting application              : Nandub v1.0rc2\r\nWriting library                  : Nandub build 1852/release\r\nVideo\r\nID                               : 0\r\nFormat                           : MPEG-4 Visual\r\nFormat profile                   : Advanced Simple@L5\r\nFormat settings, BVOP            : Yes\r\nFormat settings, QPel            : No\r\nFormat settings, GMC             : No warppoints\r\nFormat settings, Matrix          : Default (H.263)\r\nCodec ID                         : XVID\r\nCodec ID/Hint                    : XviD\r\nDuration                         : 1h 41mn\r\nBit rate                         : 827 Kbps\r\nWidth                            : 640 pixels\r\nHeight                           : 272 pixels\r\nDisplay aspect ratio             : 2.35:1\r\nFrame rate                       : 23.976 fps\r\nColor space                      : YUV\r\nChroma subsampling               : 4:2:0\r\nBit depth                        : 8 bits\r\nScan type                        : Progressive\r\nBits/(Pixel*Frame)               : 0.198\r\nStream size                      : 598 MiB (85%)\r\nWriting library                  : XviD 61\r\nAudio\r\nID                               : 1\r\nFormat                           : MPEG Audio\r\nFormat version                   : Version 1\r\nFormat profile                   : Layer 3\r\nMode                             : Joint stereo\r\nMode extension                   : MS Stereo\r\nCodec ID                         : 55\r\nCodec ID/Hint                    : MP3\r\nDuration                         : 1h 41mn\r\nBit rate mode                    : Variable\r\nBit rate                         : 129 Kbps\r\nChannel(s)                       : 2 channels\r\nSampling rate                    : 48.0 KHz\r\nStream size                      : 93.5 MiB (13%)\r\nAlignment                        : Aligned on interleaves\r\nInterleave, duration             : 24 ms (0.58 video frame)\r\nInterleave, preload duration     : 136 ms\r\nWriting library                  : LAME3.93 \r\n\r\n\r\n\r\n\r\n
Life of Pi.2012.DVDRip.XviD-PTpOWeR/Info.nfo 5.215 KB
Life of Pi.2012.DVDRip.XviD-PTpOWeR/Life of Pi_2012_LIMITED_DVDRip_Xvid_UnKnOwN.wmv 706.229 MB
Life of Pi.2012.DVDRip.XviD-PTpOWeR/READ this before playing the Video.txt 5.215 KB
Gathering some info...

Register and log in Isohunt and see no captcha anymore!

4000 symbols left
Hash 24f855c5fcd27f8a9b4bb417a7ccd5e19752c174

Related torrents for "Life of Pi 2012 DVDRip XviD-PTpOWeR"

Torrent search:

dvdrip 2012