Ghost Hunt

Ghost Hunt (2006)

Anime, Drama

Full description

Ghost Hunt (Complete Ep 01-25) 480p [Cursator]

Size 711.628 MB   0 seeders     Added 2012-12-08 20:18:22

Stream torrent
Starting‥ You need BitLord! Get it from BitLord.com
To download or stream you need BitLord. Visit them at BitLord.com
[center] [size=13]All The Episodes of Ghost Hunt (Ep 01-25) at 480p Video Quality :)

Please seed after you download.[/size]

--------------------------------------------------------------------------------

[size=48][color=#3708E3][b]Cover[/size][/color][/b]
--------------------------------------------------------------------------------
        
[img]image[/img]
--------------------------------------------------------------------------------

[img]image[/img]
---------------------------------------------------------------------------------

[size=13]Torrent Statistics[/size]

[url=http://www.torrent-stats.info][img]image[/img][/url]
----------------------------------------------------------------------------------

[size=13]General
--------

Format                                   : MPEG-4
Format profile                           : Base Media
Codec ID                                 : isom
File size                                : 26.5 MiB
Duration                                 : 24mn 14s
Overall bit rate mode                    : Variable
Overall bit rate                         : 153 Kbps
Encoded date                             : UTC 2011-12-22 05:25:37
Tagged date                              : UTC 2011-12-22 05:25:37


[img]image[/img]
---------------------------------------

ID                                       : 1
Format                                   : AVC
Format/Info                              : Advanced Video Codec
Format profile                           : High@L3.0
Format settings, CABAC                   : Yes
Format settings, ReFrames                : 8 frames
Codec ID                                 : avc1
Codec ID/Info                            : Advanced Video Coding
Duration                                 : 24mn 14s
Bit rate                                 : 85.1 Kbps
Maximum bit rate                         : 394 Kbps
Width                                    : 640 pixels
Height                                   : 480 pixels
Display aspect ratio                     : 16:9
Frame rate mode                          : Constant
Frame rate                               : 23.976 fps
Color space                              : YUV
Chroma subsampling                       : 4:2:0
Bit depth                                : 8 bits
Scan type                                : Progressive
Bits/(Pixel*Frame)                       : 0.015
Stream size                              : 14.8 MiB (56%)
Title                                    : Imported with GPAC 0.4.6-DEV (build 1)
Writing library                          : x264 core 92 r1510 33d382a

[img]image[/img]
----------------------------------

ID                                       : 2
Format                                   : AAC
Format/Info                              : Advanced Audio Codec
Format profile                           : LC
Codec ID                                 : 40
Duration                                 : 24mn 14s
Bit rate mode                            : Variable
Bit rate                                 : 64.0 Kbps
Maximum bit rate                         : 116 Kbps
Channel(s)                               : 2 channels
Channel positions                        : Front: L R
Sampling rate                            : 48.0 KHz
Compression mode                         : Lossy
Stream size                              : 11.1 MiB (42%)
Encoded date                             : UTC 2011-12-22 05:25:38
Tagged date                              : UTC 2011-12-22 05:25:38


----------------------------------------------------------------------------------

[img]image[/img]
----------------------------------------------------------------------------------
              
[img]image[/img]


              
[img]image[/img]


              
[img]image[/img]


              
[img]image[/img]


              
[img]image[/img][/size]


 
----------------------------------------------------------------------------------

[b][size=48][color=#3708E3]Story[/b][/size][/color]
----------------------------------------------------------------------------------

[size=13]Telling ghost stories is a favorite past time of Mai Taniyama and her friends?Çöthat is, until she meets 17-year-old Kazuya Shibuya, the man sent by Shibuya Psychic Research Center to investigate paranormal activity at a supposedly haunted school. When Mai gets caught in a dangerous situation, she is rescued by Kazuya's assistant. Saving her lands the assistant incapacitated, and Kazuya demands that Mai become his assistant, instead...
----------------------------------------------------------------------------------

Thank you for downloading. 

Enjoy Watching :)		[/size]
----------------------------------------------------------------------------------

[size=48][color=#3708E3][b]Facebook[/size][/color][/b]
----------------------------------------------------------------------------------

                                                                             [url=http://facebook.com/cursator] [img]image[/img][/url]
                                                        [b]                     [size=36]Find Me on Facebook :)[/size][/b]

or 

[b][size=36]Cursator@ymail.com[/size][/b]
							
[/center]
			
					
								
								
		
Ghost Hunt/Cover/Ghost Hunt [Cursator].jpg 156.954 KB
Ghost Hunt/Ghost Hunt Ep 01.mp4 27.838 MB
Ghost Hunt/Ghost Hunt Ep 02.mp4 27.437 MB
Gathering some info...

Register and log in Isohunt and see no captcha anymore!

4000 symbols left
Hash 04494c819f2900ccbea517896aad038e20f3848f

Related torrents for "Ghost Hunt (Complete Ep 01-25) 480p [Cursator]"