Dead Season 2012 DVDRip English [Accipiter]

Size 730.887 MB   4 seeders     Added 2012-12-09 03:40:25

Stream torrent
Starting‥ You need BitLord! Get it from BitLord.com
To download or stream you need BitLord. Visit them at BitLord.com
[img]image[/img]

[b]Cover:[/b]

[img]image[/img]

[b]Release info:[/b]

[code]General
Format : Matroska
Format version : Version 2
File size : 697 MiB
Duration : 1h 25mn
Overall bit rate : 1 144 Kbps

Video
ID : 1
Format : MPEG-4 Visual
Format profile : Advanced Simple@L5
Format settings, BVOP : Yes
Format settings, QPel : No
Format settings, GMC : No warppoints
Format settings, Matrix : Default (H.263)
Codec ID : V_MS/VFW/FOURCC / XVID
Codec ID/Hint : XviD
Duration : 1h 25mn
Bit rate : 993 Kbps
Width : 656 pixels
Height : 352 pixels
Display aspect ratio : 1.85:1
Frame rate mode : Constant
Frame rate : 25.000 fps
Color space : YUV
Chroma subsampling : 4:2:0
Bit depth : 8 bits
Scan type : Progressive
Compression mode : Lossy
Bits/(Pixel*Frame) : 0.172
Stream size : 605 MiB (87%)
Writing library : XviD 64
Language : English
Default : Yes
Forced : No

Audio
ID : 2
Format : MPEG Audio
Format version : Version 1
Format profile : Layer 3
Muxing mode : Header stripping
Codec ID : A_MPEG/L3
Codec ID/Hint : MP3
Duration : 1h 25mn
Bit rate mode : Constant
Bit rate : 128 Kbps
Channel(s) : 2 channels
Sampling rate : 48.0 KHz
Compression mode : Lossy
Stream size : 78.0 MiB (11%)
Language : English
Default : Yes
Forced : No


Source:
credit to original movie ripper (Thanks)[/code]

[b]IMDB Info:[/b]

[code]When a worldwide viral outbreak leads to a plague of zombies scouring the earth for the living, two survivors flee the chaos of America to a remote island...
Director: Adam Deyoe
Writers: Joshua Klausner (screenplay), Loren Semmens (screenplay),
Stars: Scott Peat, Marissa Merrill and James C. Burns 

Genres: Horror | Sci-Fi[/code]

http://www.imdb.com/title/tt1650042/

[b]Screen Shot:[/b]

[img]image[/img]
[img]image[/img]
[img]image[/img]
[img]image[/img]
[img]image[/img]
[img]image[/img]
Dead Season 2012 DVDRip English [Accipiter].mkv 730.886 MB
Torrent Downloaded From Digtorrent.org.txt 346 B
Torrent downloaded from souravfile torrents on BTScene.eu.txt 69 B
Gathering some info...

Register and log in Isohunt and see no captcha anymore!

4000 symbols left
Hash A93E24081D47CA1EB274021C2534601B3E50DAB5

Related torrents for "Dead Season 2012 DVDRip English [Accipiter]"

Torrent search:

dvdrip english 2012